Вирджинец / The Virginian (Виктор Флеминг / Victor Fleming) [1929, США, вестерн, приключения, DVDRip] VO + Original Eng

Reply to topic
DL-List and Torrent activity
Size:  1.46 GB   |    Registered:  3 years 1 month   |    Completed:  16 times

Seeder not seen: Never

 
   
 
 
Author Message

erzsebet.org ®

Longevity: 3 years 1 month

Posts: 47596

Post 02-Dec-2017 16:35

[Quote]

Вирджинец / The Virginian
Страна: США
Жанр: вестерн, приключения
Год выпуска: 1929
Продолжительность: 01:26:14
Перевод: Одноголосый закадровый
Субтитры: нет
Оригинальная аудиодорожка: Английский
Режиссер: Виктор Флеминг / Victor Fleming
В ролях: Гэри Купер, Уолтер Хьюстон, Мэри Брайан, Ричард Арлен, Хелен Уэр, Честер Конклин, Юджин Пэллет, Виктор Потел
Описание: В дебрях Вайоминга появляется новый ковбой и предводитель команды гонщиков скота, которого все зовут Вирджинец, помогающий богатому фермеру присматривать за стадом рогатого скота. В городке он встречается со своим старым приятелем Стивом. В салуне, куда они зашли пропустить стаканчик за встречу, происходит стычка с главарем игроков в покер Трампасом. Поставив на место Трампаса, Вирджинец нажил себе смертельного врага, но его это мало беспокоит. Он увлекся девушкой, только что приехавшей из Новой Англии молоденькой учительницей и наперегонки с другом ухаживает за ней. Тем временем Трампас склоняет Стива к нечестному делу, а попросту воровству бычков из стада, которым Стив ставит тайно чужое клеймо, за хорошую мзду.
Сэмпл: https://yadi.sk/i/ysqjm_vZ3M2kTY
Качество видео: DVDRip (Исходник The Virginian (1929) DVD 5 / KinoZal)
Формат видео: AVI
Видео: XviD, 704x528, (4:3), 25,000 fps 2017 Кбит/с, 8 бит, 0.22 bit/pixel
Аудио: Русский (АС3, 2 ch (Front: L R), 48,0 KHz, 192 Kbps)
Аудио 2: Английский (АС3, 2 ch (Front: L R), 48,0 KHz, 192 Kbps)

MediaInfo

Общее
Полное имя : F:\Видеофильмы\В и д е о\Вирджинец (вестерн, приключения 1929 год).avi
Формат : AVI
Формат/Информация : Audio Video Interleave
Размер файла : 1,46 Гбайт
Продолжительность : 1 ч. 26 м.
Общий поток : 2416 Кбит/сек
Программа кодирования : VirtualDubMod 1.5.10.3 | www.virtualdub-fr.org || (build 2550/release)
Библиотека кодирования : VirtualDubMod build 2550/release
Видео
Идентификатор : 0
Формат : MPEG-4 Visual
Профиль формата : Advanced [email protected]
Параметр BVOP формата : 2
Параметр QPel формата : Нет
Параметр GMC формата : Без точки перехода
Параметр матрицы формата : Выборочная
Идентификатор кодека : XVID
Идентификатор кодека/Подсказка : XviD
Продолжительность : 1 ч. 26 м.
Битрейт : 2017 Кбит/сек
Ширина : 704 пикселя
Высота : 528 пикселей
Соотношение сторон : 4:3
Частота кадров : 25,000 кадров/сек
Цветовое пространство : YUV
Субдискретизация насыщенности : 4:2:0
Битовая глубина : 8 бит
Тип развёртки : Прогрессивная
Метод сжатия : С потерями
Бит/(Пиксели*Кадры) : 0.217
Размер потока : 1,22 Гбайт (84%)
Библиотека кодирования : XviD 73
Аудио #1
Идентификатор : 1
Формат : AC-3
Формат/Информация : Audio Coding 3
Расширение режима : CM (complete main)
Параметр Endianness формата : Big
Идентификатор кодека : 2000
Продолжительность : 1 ч. 26 м.
Вид битрейта : Постоянный
Битрейт : 192 Кбит/сек
Каналы : 2 канала
Расположение каналов : Front: L R
Частота : 48,0 КГц
Частота кадров : 31,250 кадров/сек (1536 spf)
Метод сжатия : С потерями
Размер потока : 118 Мбайт (8%)
Выравнивание : Разделение по промежуткам
Продолжительность промежутка : 40 мс. (1,00 видеокадр)
Время предзагрузки промежутка : 500 мс.
Аудио #2
Идентификатор : 2
Формат : AC-3
Формат/Информация : Audio Coding 3
Расширение режима : CM (complete main)
Параметр Endianness формата : Big
Идентификатор кодека : 2000
Продолжительность : 1 ч. 26 м.
Вид битрейта : Постоянный
Битрейт : 192 Кбит/сек
Каналы : 2 канала
Расположение каналов : Front: L R
Частота : 48,0 КГц
Частота кадров : 31,250 кадров/сек (1536 spf)
Метод сжатия : С потерями
Размер потока : 118 Мбайт (8%)
Выравнивание : Разделение по промежуткам
Продолжительность промежутка : 40 мс. (1,00 видеокадр)
Время предзагрузки промежутка : 500 мс.

Скриншот c названием фильма

Скриншоты

If your ratio falls below 0.3, you will not be able to download Torrents! More about the rating.

[erzsebet.pl].t361.torrent
Torrent: Registered [ 2017-12-02 16:36 ] · 1075F81D9A23935DD952D14778DFB7871695AC9E

Download .torrent

Download

15 KB

Status: checked
Completed: 16 times
Size: 1.46 GB
terms.php
[Profile] [PM]
Display posts:    
Reply to topic

Current time is: 23-Jan 14:13

All times are UTC ± 0



You cannot post new topics in this forum
You cannot reply to topics in this forum
You cannot edit your posts in this forum
You cannot delete your posts in this forum
You cannot vote in polls in this forum
You cannot attach files in this forum
You can download files in this forum