Тайная операция / The Borderland / Covert Operation (Матье Вешлер / Mathieu Weschler) [2012, Франция, боевик, триллер, DVB] MVO

DL-List and Torrent activity
Size:  1.23 GB   |    Registered:  3 years 1 month   |    Completed:  16 times
Seeders:  1  
 
   
 
 

erzsebet.org ®

Longevity:
3 years 1 month
Posts:
47596

[Quote] 

Тайная операцияThe Borderland Страна: Франция
Жанр: боевик, триллер
Продолжительность: 01:21:59
Год выпуска: 2012
Перевод: Профессиональный (многоголосый закадровый)
Субтитры: отсутствуют-Режиссёр: Матье Вешлер : Mathieu Weschler
В ролях: Сейдина Балде, Майкл Чан, Сабина Кроссен, Серж Крозон-Казин, Джеймс Жерар, Мюриэль Хофманн, Кирт Кисита, Бей Логан...-О фильме: Охотника за головами Габриэля, разыскивающего преступников на территории Азии, посылают с новым заданием в район, расположенный недалеко от границы между Китаем и Северной Кореей. Он должен отыскать пропавшего агента британской спецслужбы.
В итоге пойманный Габриэль приходит в себя на секретной базе, полной северокорейских солдат, которые твёрдо настроены выяснить причину его пребывания в стране.
-
Семпл: https://www.sendspace.com/file/qyeszx-Многоголосый перевод к данному фильму появляется в сети впервые.-Качество: DVB [НТК] (эфир 28.11.2017)
Формат: TS
Видео: 720x576 (16:9) @ 1047x576, AVC, 25 fps, ~1845 kbps, 0.178 bit/pixel
Аудио: [RUS] 48 kHz, MP2, 2 ch, 192 kbps

Mediainfo

Общее
Идентификатор : 1 (0x1)
Полное имя : F:\Тайная операция (2012) [НТК].ts
Формат : MPEG-TS
Размер файла : 1,23 Гбайт
Продолжительность : 1 ч. 21 м.
Режим общего битрейта : Переменный
Общий поток : 2144 Кбит/сек
Видео
Идентификатор : 67 (0x43)
Идентификатор меню : 1 (0x1)
Формат : AVC
Формат/Информация : Advanced Video Codec
Профиль формата : [email protected]
Параметр CABAC формата : Да
Параметр RefFrames формата : 3 кадра
Параметр GOP формата : M=4, N=24
Идентификатор кодека : 27
Продолжительность : 1 ч. 21 м.
Битрейт : 1845 Кбит/сек
Ширина : 720 пикселей
Высота : 576 пикселей
Соотношение сторон : 16:9
Частота кадров : 25,000 кадров/сек
Стандарт вещания : Component
Цветовое пространство : YUV
Субдискретизация насыщенности : 4:2:0
Битовая глубина : 8 бит
Тип развёртки : Чересстрочная
Метод сохранения типа развёртки : Раздельные поля
Порядок развёртки : Верхнее поле первое
Бит/(Пиксели*Кадры) : 0.178
Размер потока : 1,06 Гбайт (86%)
Цветовой диапазон : Limited
Основные цвета : BT.601 PAL
Характеристики трансфера : BT.470 System B, BT.470 System G
Коэффициенты матрицы : BT.470 System B, BT.470 System G
Аудио
Идентификатор : 68 (0x44)
Идентификатор меню : 1 (0x1)
Формат : MPEG Audio
Версия формата : Version 1
Профиль формата : Layer 2
Идентификатор кодека : 3
Продолжительность : 1 ч. 21 м.
Вид битрейта : Постоянный
Битрейт : 192 Кбит/сек
Каналы : 1 канал
Частота : 48,0 КГц
Метод сжатия : С потерями
Задержка видео : -80 мс.
Размер потока : 113 Мбайт (9%)
Язык : English

Скриншоты

If your ratio falls below 0.3, you will not be able to download Torrents! More about the rating.

[erzsebet.pl].t40.torrent
Torrent: Registered   [ 2017-12-02 15:58 ]

Download .torrent

Download

13 KB

Status: checked
Completed: 16 times
Size: 1.23 GB
terms.php

#1

02-Dec-2017 15:57

[Profile]  [PM] 
Display posts:    

You cannot post new topics in this forum
You cannot reply to topics in this forum
You cannot edit your posts in this forum
You cannot delete your posts in this forum
You cannot vote in polls in this forum
You cannot attach files in this forum
You can download files in this forum
User agreement
For copyright holders
Advertise on this site

Скачайте на халяву через торрент на трекере erzsebet.pl

!ATTENTION!
The site does not give electronic versions of products, and is engaged only in a collecting and cataloguing of the references sent and published at a forum by our readers. If you are the legal owner of any submitted material and do not wish that the reference to it was in our catalogue, contact us and we shall immediately remove her. Files for an exchange on tracker are given by users of a site, and the administration does not bear the responsibility for their maintenance. The request to not fill in the files protected by copyrights, and also files of the illegal maintenance!