Мания величия / La folie des grandeurs (Жерар Ури / Gérard Oury) [1971, Франция, Италия, Испания, Германия (ФРГ), комедия, BDRip-AVC] MVO (ТВ Центр) + MVO (DVD Magic) + Sub Rus, Fra, Eng+ Original Fra

DL-List and Torrent activity
Size:  3.6 GB   |    Registered:  6 months 15 days   |    Completed:  16 times
Seeders:  1  
 
   
 
 

YTS/YIFY ®

Longevity:
2 years 11 months
Posts:
41221

[Quote] 

Мания величия / La folie des grandeurs

Страна: Франция, Италия, Испания, Германия (ФРГ)
Жанр: комедия
Год выпуска: 1971
Продолжительность: 01:49:06
Перевод: Профессиональный (многоголосый закадровый) ТВ Центр
Перевод 2: Профессиональный (многоголосый закадровый) DVD Magic
Оригинальная аудиодорожка: французский
Субтитры: русские, английские, французские
Режиссер: Жерар Ури / Gérard Oury
В ролях: Луи де Фюнес, Ив Монтан, Алис Саприч, Карин Шуберт, Альберто де Мендоса, Дон Хайме де Мора-и-Арагон, Эдуардо Фахардо, Антонио Пика, Хоакин Солис, Венантино Венантини, Габриэле Тинти, Поль Пребуа
Описание: Луи Де Фюнес в роли Дона Салюсты, жадного сборщика налогов, обворовывающего короля. Его слугу Рюи Блаза играет Ив Монтан. Разбитной веселый мошенник постоянно издевается над хозяином и строит ему козни.
Так он использует неописуемую алчность и жажду лести человека, считающего, что «бедные должны быть бедными, а богатые должны стать еще богаче», и подбивает Салюста соблазнить испанскую королеву, на которую сам положил глаз...
Доп. информация: дорожку телеканала ТВЦентр честно взял из раздачи intellect, т.к. считаю её лучшей для этого фильма. Русского дубляжа к нему нет.
Сэмпл | Исходник
Качество видео: BDRip-AVC
Формат видео: MKV
Видео: AVC, 1072x576 (1.85:1), 24 fps, 4000 kbps avg, 0.269 bit/pixel
Аудио RUS: AC3, 48 kHz, 2 ch, 192 kbps - ТВ-Центр
Аудио RUS: AC3, 48 kHz, 2 ch, 256 kbps - DVD Magic
Аудио FRE: AC3, 48 kHz, 2 ch, 192 kbps - оригинал

MediaInfo

General
Unique ID : 185452190520701428456993212823623929468 (0x8B84CAEE3AE6999889DB771BFD178E7C)
Complete name : E:\ВИДЕО\Мания величия (1971).mkv
Format : Matroska
Format version : Version 2
File size : 3.60 GiB
Duration : 1 h 49 min
Overall bit rate : 4 727 kb/s
Movie name : La Folie des Grandeurs (1971)
Encoded date : UTC 2020-05-18 10:59:33
Writing application : mkvmerge v6.9.1 ('Blue Panther') 32bit built on Apr 18 2014 18:15:44
Writing library : libebml v1.3.0 + libmatroska v1.4.1
Video
ID : 1
Format : AVC
Format/Info : Advanced Video Codec
Format profile : [email protected]
Format settings : CABAC / 13 Ref Frames
Format settings, CABAC : Yes
Format settings, Reference : 13 frames
Codec ID : V_MPEG4/ISO/AVC
Duration : 1 h 49 min
Bit rate : 3 993 kb/s
Width : 1 072 pixels
Height : 576 pixels
Display aspect ratio : 1.85:1
Frame rate mode : Constant
Frame rate : 24.000 FPS
Color space : YUV
Chroma subsampling : 4:2:0
Bit depth : 8 bits
Scan type : Progressive
Bits/(Pixel*Frame) : 0.269
Stream size : 3.04 GiB (84%)
Writing library : x264 core 157 r2969 d4099dd
Encoding settings : cabac=1 / ref=13 / deblock=1:-3:-2 / analyse=0x3:0x113 / me=umh / subme=10 / psy=1 / psy_rd=0.98:0.05 / mixed_ref=1 / me_range=32 / chroma_me=1 / trellis=2 / 8x8dct=1 / cqm=0 / deadzone=21,11 / fast_pskip=0 / chroma_qp_offset=-3 / threads=18 / lookahead_threads=4 / sliced_threads=0 / nr=0 / decimate=1 / interlaced=0 / bluray_compat=0 / constrained_intra=0 / bframes=11 / b_pyramid=2 / b_adapt=2 / b_bias=0 / direct=1 / weightb=1 / open_gop=0 / weightp=2 / keyint=250 / keyint_min=23 / scenecut=40 / intra_refresh=0 / rc_lookahead=60 / rc=crf / mbtree=0 / crf=19.0 / qcomp=0.65 / qpmin=0 / qpmax=69 / qpstep=4 / vbv_maxrate=14000 / vbv_bufsize=14000 / crf_max=0.0 / nal_hrd=none / filler=0 / ip_ratio=1.40 / pb_ratio=1.20 / aq=2:0.70
Language : English
Default : Yes
Forced : No
Color range : Limited
Color primaries : BT.709
Transfer characteristics : BT.709
Matrix coefficients : BT.709
Duration_Source : General_Duration
Audio #1
ID : 2
Format : AC-3
Format/Info : Audio Coding 3
Commercial name : Dolby Digital
Codec ID : A_AC3
Duration : 1 h 49 min
Bit rate mode : Constant
Bit rate : 192 kb/s
Channel(s) : 2 channels
Channel layout : L R
Sampling rate : 48.0 kHz
Frame rate : 31.250 FPS (1536 SPF)
Compression mode : Lossy
Stream size : 150 MiB (4%)
Title : AC3, 48 kHz, 2 ch, 192 kbps | ТК "ТВ Центр"
Language : Russian
Service kind : Complete Main
Default : Yes
Forced : No
Duration_Source : General_Duration
Audio #2
ID : 3
Format : AC-3
Format/Info : Audio Coding 3
Commercial name : Dolby Digital
Codec ID : A_AC3
Duration : 1 h 49 min
Bit rate mode : Constant
Bit rate : 256 kb/s
Channel(s) : 2 channels
Channel layout : L R
Sampling rate : 48.0 kHz
Frame rate : 31.250 FPS (1536 SPF)
Compression mode : Lossy
Stream size : 200 MiB (5%)
Title : AC3, 48 kHz, 2 ch, 256 kbps | R5 DVD Magic
Language : Russian
Service kind : Complete Main
Default : No
Forced : No
Duration_Source : General_Duration
Audio #3
ID : 4
Format : AC-3
Format/Info : Audio Coding 3
Commercial name : Dolby Digital
Codec ID : A_AC3
Duration : 1 h 49 min
Bit rate mode : Constant
Bit rate : 192 kb/s
Channel(s) : 2 channels
Channel layout : L R
Sampling rate : 48.0 kHz
Frame rate : 31.250 FPS (1536 SPF)
Compression mode : Lossy
Stream size : 150 MiB (4%)
Title : AC3, 48 kHz, 2 ch, 192 kbps | Оригинал
Language : French
Service kind : Complete Main
Default : No
Forced : No
Duration_Source : General_Duration
Text #1
ID : 5
Format : UTF-8
Codec ID : S_TEXT/UTF8
Codec ID/Info : UTF-8 Plain Text
Language : Russian
Default : No
Forced : No
Text #2
ID : 6
Format : UTF-8
Codec ID : S_TEXT/UTF8
Codec ID/Info : UTF-8 Plain Text
Language : French
Default : No
Forced : No
Text #3
ID : 7
Format : UTF-8
Codec ID : S_TEXT/UTF8
Codec ID/Info : UTF-8 Plain Text
Language : English
Default : No
Forced : No
Menu
00:00:00.000 : en:Scene 01
00:10:24.666 : en:Scene 02
00:19:55.166 : en:Scene 03
00:28:31.416 : en:Scene 04
00:38:50.833 : en:Scene 05
00:51:04.916 : en:Scene 06
00:59:05.083 : en:Scene 07
01:05:02.875 : en:Scene 08
01:19:42.166 : en:Scene 09
01:24:16.166 : en:Scene 10
01:28:24.375 : en:Scene 11
01:44:06.041 : en:Scene 12

x264 log

x264.exe: --crf 19.0 --preset veryslow --tune film --level 4.1 --ref 13 --aq-mode 2 --aq-strength 0.7 --deblock -3:-2 --merange 32 --bframes 11 --direct spatial --no-fast-pskip --psy-rd 0.98:0.05 --qcomp 0.65 --no-mbtree --pbratio 1.20 --colorprim bt709 --transfer bt709 --colormatrix bt709 --vbv-bufsize 14000 --vbv-maxrate 14000 --partitions p8x8,b8x8,i4x4,i8x8 --sar 1:1 --output "E:\ВИДЕО\Мания величия\00000.mkv" "D:\Temp\0081.avs"
avs [info]: 1072x576p 1:1 @ 10000000/416667 fps (cfr)
x264 [info]: using SAR=1/1
x264 [info]: using cpu capabilities: MMX2 SSE2Fast SSSE3 SSE4.2 AVX FMA3 BMI2 AVX2
x264 [info]: profile Progressive High, level 4.1, 4:2:0, 8-bit
x264 [info]: frame I:1182 Avg QP:19.14 size: 79242
x264 [info]: frame P:35554 Avg QP:21.16 size: 33710
x264 [info]: frame B:120367 Avg QP:22.72 size: 17034

Сравнение скриншотов

Source Vicman vladimiryakushin

Скриншоты

If your ratio falls below 0.3, you will not be able to download Torrents! More about the rating.

[erzsebet.pl].t410938.torrent
Torrent: Registered   [ 2020-05-18 11:42 ]

Download .torrent

Download

18 KB

Status: checked
Completed: 16 times
Size: 3.6 GB
terms.php

#1

18-May-2020 11:41

[Profile]  [PM] 
Display posts:    

You cannot post new topics in this forum
You cannot reply to topics in this forum
You cannot edit your posts in this forum
You cannot delete your posts in this forum
You cannot vote in polls in this forum
You cannot attach files in this forum
You can download files in this forum
User agreement
For copyright holders
Advertise on this site

Скачайте на халяву через торрент на трекере erzsebet.pl

!ATTENTION!
The site does not give electronic versions of products, and is engaged only in a collecting and cataloguing of the references sent and published at a forum by our readers. If you are the legal owner of any submitted material and do not wish that the reference to it was in our catalogue, contact us and we shall immediately remove her. Files for an exchange on tracker are given by users of a site, and the administration does not bear the responsibility for their maintenance. The request to not fill in the files protected by copyrights, and also files of the illegal maintenance!