Aerosmith Rocks Donington 2014 [2015, Hard Rock, BDRip 1080p]

DL-List and Torrent activity
Size:  11.29 GB   |    Registered:  6 months 11 days   |    Completed:  16 times
Seeders:  1  
 
   
 
 

erzsbtpl ®

Longevity:
2 years 3 months
Posts:
22470

[Quote] 

Aerosmith Rocks Donington 2014
Жанр: Hard Rock
Продолжительность: 1:44:41
Год выпуска: 2015
Описание: Aerosmith Rocks Donington 2014 is much more than just a great gig. It is a lasting document of the powerful and explosive bond that these five men Steven Tyler, Joe Perry, Brad Whitford, Tom Hamilton and Joey Kramer have made with each other and with fans of rock 'n' roll everywhere. The film captures Aerosmith headlining the massive Download Festival at Donington Park with all their attitude and talent-drenched beauty as they deliver a blistering set of their greatest hits. It is a true once-in-a-lifetime rock 'n' roll experience to treasure and remember forever.
Track Listing:
Live at Donington Park, Castle Donington, England 15.06.14
1. Train Kept A-Rollin'
2. Eat The Rich
3. Love In An Elevator
4. Cryin'
5. Jaded
6. Livin' On The Edge
7. Last Child
8. Freedom Fighter
9. Same Old Song And Dance
10. Janie's Got A Gun
11. Toys In The Attic
12. I Don't Want To Miss A Thing
13. No More No More
14. Come Together
15. Dude (Looks Like A Lady)
16. Walk This Way
17. Home Tonight
18. Dream On
19. Sweet Emotion
20. Mama Kin
Качество: BDRip 1080p
Контейнер: MKV
Видео кодек: H.264
Аудио кодек: DTS, FLAC
Видео: AVC, 1920x1080 (16:9), 23.976 fps, 12.9 Mb/s
Аудио#1: DTS, 48.0 kHz, 6 ch, 1 509 kb/s
Аудио#2: FLAC, 48.0 kHz, 2 ch, 1 034 kb/s

MediaInfo/x264Log

x264Log

[Information] [16.05.2020 02:39:40] Standard error stream
-[Information] [16.05.2020 02:39:58] y4m [info]: 1920x1080p 1:1 @ 24000/1001 fps (cfr)
-[Information] [16.05.2020 02:39:58] x264 [info]: using SAR=1/1
-[Information] [16.05.2020 02:39:58] x264 [info]: using cpu capabilities: MMX2 SSE2Fast SSSE3 SSE4.2 AVX FMA3 BMI2 AVX2
-[Information] [16.05.2020 02:39:58] x264 [info]: profile Progressive High, level 4.1, 4:2:0, 8-bit
-[Information] [16.05.2020 06:14:45] x264 [info]: frame I:810 Avg QP:17.85 size:170578
-[Information] [16.05.2020 06:14:45] x264 [info]: frame P:46344 Avg QP:21.09 size: 92227
-[Information] [16.05.2020 06:14:45] x264 [info]: frame B:103440 Avg QP:22.46 size: 55249
-[Information] [16.05.2020 06:14:45] x264 [info]: consecutive B-frames: 5.0% 8.6% 23.3% 40.0% 14.9% 6.8% 0.8% 0.3% 0.2% 0.2%
-[Information] [16.05.2020 06:14:45] x264 [info]: mb I I16..4: 22.1% 67.5% 10.3%
-[Information] [16.05.2020 06:14:45] x264 [info]: mb P I16..4: 10.0% 27.0% 2.2% P16..4: 24.4% 21.3% 5.2% 0.6% 0.0% skip: 9.4%
-[Information] [16.05.2020 06:14:45] x264 [info]: mb B I16..4: 2.9% 7.6% 0.4% B16..8: 34.8% 16.6% 2.7% direct:10.0% skip:25.1% L0:45.0% L1:40.3% BI:14.7%
-[Information] [16.05.2020 06:14:45] x264 [info]: 8x8 transform intra:69.4% inter:75.2%
-[Information] [16.05.2020 06:14:45] x264 [info]: direct mvs spatial:97.7% temporal:2.3%
-[Information] [16.05.2020 06:14:45] x264 [info]: coded y,uvDC,uvAC intra: 55.5% 76.4% 43.0% inter: 29.7% 40.7% 5.3%
-[Information] [16.05.2020 06:14:45] x264 [info]: i16 v,h,dc,p: 57% 13% 6% 24%
-[Information] [16.05.2020 06:14:45] x264 [info]: i8 v,h,dc,ddl,ddr,vr,hd,vl,hu: 9% 7% 21% 8% 11% 11% 11% 10% 13%
-[Information] [16.05.2020 06:14:45] x264 [info]: i4 v,h,dc,ddl,ddr,vr,hd,vl,hu: 11% 7% 17% 8% 13% 12% 11% 9% 12%
-[Information] [16.05.2020 06:14:45] x264 [info]: i8c dc,h,v,p: 31% 30% 21% 18%
-[Information] [16.05.2020 06:14:45] x264 [info]: Weighted P-Frames: Y:7.2% UV:4.9%
-[Information] [16.05.2020 06:14:45] x264 [info]: ref P L0: 55.7% 8.6% 22.9% 11.3% 1.5% 0.1%
-[Information] [16.05.2020 06:14:45] x264 [info]: ref B L0: 85.3% 11.9% 2.8%
-[Information] [16.05.2020 06:14:45] x264 [info]: ref B L1: 96.2% 3.8%
-[Information] [16.05.2020 06:14:45] x264 [info]: kb/s:12898.90
-[Information] [16.05.2020 06:14:45] encoded 150594 frames, 11.69 fps, 12898.90 kb/s
General
Unique ID : 190193367164488542592349847791591189743 (0x8F15E8FC9D54886F3ECEE052353F6CEF)
Complete name : G:\Aerosmith Rocks Donington 2014.BDRip1080p.mkv
Format : Matroska
Format version : Version 2
File size : 11.3 GiB
Duration : 1 h 44 min
Overall bit rate mode : Variable
Overall bit rate : 15.4 Mb/s
Movie name : Aerosmith Rocks Donington 2014.BDRip1080p @ erzsebet.org
Encoded date : UTC 2020-05-16 12:45:37
Writing application : mkvmerge v41.0.0 ('Smarra') 64-bit
Writing library : libebml v1.3.9 + libmatroska v1.5.2
Video
ID : 1
Format : AVC
Format/Info : Advanced Video Codec
Format profile : [email protected]
Format settings : CABAC / 4 Ref Frames
Format settings, CABAC : Yes
Format settings, Reference : 4 frames
Codec ID : V_MPEG4/ISO/AVC
Duration : 1 h 44 min
Bit rate : 12.9 Mb/s
Width : 1 920 pixels
Height : 1 080 pixels
Display aspect ratio : 16:9
Frame rate mode : Constant
Frame rate : 23.976 (24000/1001) FPS
Color space : YUV
Chroma subsampling : 4:2:0
Bit depth : 8 bits
Scan type : Progressive
Bits/(Pixel*Frame) : 0.259
Stream size : 9.43 GiB (84%)
Title : anbelk27 @ erzsebet.org
Writing library : x264 core 157 r2969 d4099dd
Encoding settings : cabac=1 / ref=4 / deblock=1:-3:-3 / analyse=0x3:0x133 / me=umh / subme=11 / psy=1 / psy_rd=1.07:0.10 / mixed_ref=1 / me_range=36 / chroma_me=1 / trellis=2 / 8x8dct=1 / cqm=0 / deadzone=21,11 / fast_pskip=1 / chroma_qp_offset=-3 / threads=12 / lookahead_threads=2 / sliced_threads=0 / nr=0 / decimate=1 / interlaced=0 / bluray_compat=0 / constrained_intra=0 / bframes=9 / b_pyramid=2 / b_adapt=2 / b_bias=0 / direct=3 / weightb=1 / open_gop=0 / weightp=2 / keyint=240 / keyint_min=23 / scenecut=50 / intra_refresh=0 / rc_lookahead=80 / rc=2pass / mbtree=1 / bitrate=12900 / ratetol=1.0 / qcomp=0.60 / qpmin=0 / qpmax=69 / qpstep=4 / cplxblur=20.0 / qblur=0.5 / vbv_maxrate=50000 / vbv_bufsize=62500 / nal_hrd=none / filler=0 / ip_ratio=1.40 / aq=1:1.00
Default : Yes
Forced : No
Audio #1
ID : 2
Format : DTS
Format/Info : Digital Theater Systems
Codec ID : A_DTS
Duration : 1 h 44 min
Bit rate mode : Constant
Bit rate : 1 509 kb/s
Channel(s) : 6 channels
Channel layout : C L R Ls Rs LFE
Sampling rate : 48.0 kHz
Frame rate : 93.750 FPS (512 SPF)
Bit depth : 16 bits
Compression mode : Lossy
Stream size : 1.10 GiB (10%)
Title : DTS 5.1 @ 16 bit
Default : No
Forced : No
Audio #2
ID : 3
Format : FLAC
Format/Info : Free Lossless Audio Codec
Codec ID : A_FLAC
Duration : 1 h 44 min
Bit rate mode : Variable
Bit rate : 1 034 kb/s
Channel(s) : 2 channels
Channel layout : L R
Sampling rate : 48.0 kHz
Frame rate : 11.719 FPS (4096 SPF)
Bit depth : 16 bits
Compression mode : Lossless
Stream size : 774 MiB (7%)
Title : FLAC 2.0 @ 16 bit
Writing library : libFLAC 1.2.1 (UTC 2007-09-17)
Default : No
Forced : No
Menu
00:00:00.000 : en:Intro
00:01:19.512 : en:1. Train Kept A-Rollin'
00:05:13.179 : en:2. Eat The Rich
00:10:27.159 : en:3. Love In An Elevator
00:16:17.643 : en:4. Cryin'
00:21:39.097 : en:5. Jaded
00:25:17.816 : en:6. Livin' On The Edge
00:32:22.173 : en:7. Last Child
00:38:42.720 : en:8. Freedom Fighter
00:42:33.684 : en:9. Same Old Song And Dance
00:48:38.382 : en:10. Janie's Got A Gun
00:53:28.305 : en:11. Toys In The Attic
00:57:38.655 : en:12. I Don't Want To Miss A Thing
01:02:11.160 : en:13. No More No More
01:06:34.657 : en:14. Come Together
01:11:24.847 : en:15. Dude (Looks Like A Lady)
01:16:01.623 : en:16. Walk This Way
01:21:00.722 : en:17. Home Tonight
01:22:11.059 : en:18. Dream On
01:27:12.961 : en:19. Sweet Emotion
01:34:52.520 : en:18. Dream On
01:37:05.619 : en:20. Mama Kin
01:41:47.367 : en:Credits

Скриншоты

If your ratio falls below 0.3, you will not be able to download Torrents! More about the rating.

[erzsebet.pl].t411103.torrent
Torrent: Registered   [ 2020-05-18 12:02 ]

Download .torrent

Download

57 KB

Status: checked
Completed: 16 times
Size: 11.29 GB
terms.php

#1

18-May-2020 12:02

[Profile]  [PM] 
Display posts:    

You cannot post new topics in this forum
You cannot reply to topics in this forum
You cannot edit your posts in this forum
You cannot delete your posts in this forum
You cannot vote in polls in this forum
You cannot attach files in this forum
You can download files in this forum
User agreement
For copyright holders
Advertise on this site

Скачайте на халяву через торрент на трекере erzsebet.pl

!ATTENTION!
The site does not give electronic versions of products, and is engaged only in a collecting and cataloguing of the references sent and published at a forum by our readers. If you are the legal owner of any submitted material and do not wish that the reference to it was in our catalogue, contact us and we shall immediately remove her. Files for an exchange on tracker are given by users of a site, and the administration does not bear the responsibility for their maintenance. The request to not fill in the files protected by copyrights, and also files of the illegal maintenance!