Alanis Morissette - Live at Montreux [2012, Rock, Alternative, BDRip, 720p]

DL-List and Torrent activity
Size:  6.73 GB   |    Registered:  6 months 11 days   |    Completed:  16 times
Seeders:  1  
 
   
 
 

erzsbtpl ®

Longevity:
2 years 3 months
Posts:
22468

[Quote] 

Alanis Morissette - Live at Montreux
Жанр: Rock, Alternative
Продолжительность: 01:38:05
Год выпуска: 2012
Исполнители: Alanis Morissette (vocals, harmonica, guitar); Julian Coryell (guitar); Michael Farrell (keyboards); Jason Orme (guitar); Cedric Lemoyne (bass); Victor Indrizzo (drums)
Треклист:
01. I Remain
02. Woman Down
03. All I Really Want
04. You Learn
05. Guardian
06. Flinch
07. Forgiven
08. Hands Clean
09. I Remain
10. Citizen Of The Planet
11. Ironic
12. Havoc
13. Head Over Feet
14. Versions Of Violence
15. I Remain
16. You Oughta Know
17. Numb
18. Hand In My Pocket
19. Uninvited
20. Thank U
Источник Alanis Morissette - Live at Montreux 2012 [2013, Rock, Blu-ray]
Качество: BDRip
Разрешение видео/развертка: 720p
Контейнер: MKV
Видео кодек: H.264
Аудио кодек: DTS, FLAC
Видео: AVC, 1280x720 (16:9), 29.970 fps, 6 500 kb/s
Аудио#1: DTS, 96.0 kHz, 6 ch, 1 509 kb/s
Аудио#2: FLAC, 48.0 kHz, 2 ch, 1 811 kb/s

MediaInfo / x264Log

x264Log

[Information] [18.05.2020 06:02:09] Standard error stream
-[Information] [18.05.2020 06:02:27] y4m [info]: 1280x720p 1:1 @ 30000/1001 fps (cfr)
-[Information] [18.05.2020 06:02:27] x264 [info]: using SAR=1/1
-[Information] [18.05.2020 06:02:27] x264 [info]: using cpu capabilities: MMX2 SSE2Fast SSSE3 SSE4.2 AVX FMA3 BMI2 AVX2
-[Information] [18.05.2020 06:02:27] x264 [info]: profile Progressive High, level 4.1, 4:2:0, 8-bit
-[Information] [18.05.2020 08:54:25] x264 [info]: frame I:858 Avg QP:17.09 size: 93482
-[Information] [18.05.2020 08:54:25] x264 [info]: frame P:43170 Avg QP:20.12 size: 43704
-[Information] [18.05.2020 08:54:25] x264 [info]: frame B:132335 Avg QP:21.09 size: 21266
-[Information] [18.05.2020 08:54:25] x264 [info]: consecutive B-frames: 2.1% 3.9% 17.6% 22.1% 17.8% 32.8% 3.3% 0.4%
-[Information] [18.05.2020 08:54:25] x264 [info]: mb I I16..4: 8.0% 75.1% 16.9%
-[Information] [18.05.2020 08:54:25] x264 [info]: mb P I16..4: 2.0% 13.0% 1.7% P16..4: 33.3% 38.6% 7.9% 0.8% 0.1% skip: 2.7%
-[Information] [18.05.2020 08:54:25] x264 [info]: mb B I16..4: 0.2% 1.8% 0.2% B16..8: 42.5% 21.0% 2.7% direct:11.1% skip:20.5% L0:46.6% L1:42.8% BI:10.6%
-[Information] [18.05.2020 08:54:25] x264 [info]: 8x8 transform intra:78.7% inter:72.1%
-[Information] [18.05.2020 08:54:25] x264 [info]: direct mvs spatial:95.1% temporal:4.9%
-[Information] [18.05.2020 08:54:25] x264 [info]: coded y,uvDC,uvAC intra: 80.6% 83.3% 53.8% inter: 37.5% 47.1% 7.0%
-[Information] [18.05.2020 08:54:25] x264 [info]: i16 v,h,dc,p: 37% 14% 5% 44%
-[Information] [18.05.2020 08:54:25] x264 [info]: i8 v,h,dc,ddl,ddr,vr,hd,vl,hu: 5% 5% 5% 11% 18% 15% 16% 12% 13%
-[Information] [18.05.2020 08:54:25] x264 [info]: i4 v,h,dc,ddl,ddr,vr,hd,vl,hu: 7% 6% 4% 10% 16% 14% 16% 12% 15%
-[Information] [18.05.2020 08:54:25] x264 [info]: i8c dc,h,v,p: 36% 22% 19% 23%
-[Information] [18.05.2020 08:54:25] x264 [info]: Weighted P-Frames: Y:14.9% UV:11.2%
-[Information] [18.05.2020 08:54:25] x264 [info]: ref P L0: 48.0% 8.1% 16.4% 8.0% 5.6% 4.7% 3.8% 2.6% 2.5% 0.4% 0.0%
-[Information] [18.05.2020 08:54:25] x264 [info]: ref B L0: 77.1% 10.1% 5.2% 2.6% 2.0% 1.6% 1.1% 0.3%
-[Information] [18.05.2020 08:54:25] x264 [info]: ref B L1: 95.4% 4.6%
-[Information] [18.05.2020 08:54:25] x264 [info]: kb/s:6499.79
-[Information] [18.05.2020 08:54:25] encoded 176363 frames, 17.10 fps, 6499.79 kb/s
General
Unique ID : 131543989939038741038159864750720269871 (0x62F6736FACD3601A685D7C992AC1BE2F)
Complete name : G:\Alanis Morissette - Live at Montreux 2012.BDRip720p.mkv
Format : Matroska
Format version : Version 2
File size : 6.73 GiB
Duration : 1 h 38 min
Overall bit rate mode : Variable
Overall bit rate : 9 823 kb/s
Movie name : Alanis Morissette - Live at Montreux 2012.BDRip720p @ erzsebet.org
Encoded date : UTC 2020-05-18 10:47:53
Writing application : mkvmerge v46.0.0 ('No Deeper Escape') 64-bit
Writing library : libebml v1.3.10 + libmatroska v1.5.2
Video
ID : 1
Format : AVC
Format/Info : Advanced Video Codec
Format profile : [email protected]
Format settings : CABAC / 9 Ref Frames
Format settings, CABAC : Yes
Format settings, Reference : 9 frames
Codec ID : V_MPEG4/ISO/AVC
Duration : 1 h 38 min
Bit rate : 6 500 kb/s
Width : 1 280 pixels
Height : 720 pixels
Display aspect ratio : 16:9
Frame rate mode : Constant
Frame rate : 29.970 (30000/1001) FPS
Color space : YUV
Chroma subsampling : 4:2:0
Bit depth : 8 bits
Scan type : Progressive
Bits/(Pixel*Frame) : 0.235
Stream size : 4.45 GiB (66%)
Title : anbelk27 @ erzsebet.org
Writing library : x264 core 157 r2969 d4099dd
Encoding settings : cabac=1 / ref=9 / deblock=1:-3:-3 / analyse=0x3:0x133 / me=umh / subme=11 / psy=1 / psy_rd=1.10:0.07 / mixed_ref=1 / me_range=40 / chroma_me=1 / trellis=2 / 8x8dct=1 / cqm=0 / deadzone=21,11 / fast_pskip=1 / chroma_qp_offset=-3 / threads=12 / lookahead_threads=2 / sliced_threads=0 / nr=0 / decimate=1 / interlaced=0 / bluray_compat=0 / constrained_intra=0 / bframes=7 / b_pyramid=2 / b_adapt=2 / b_bias=0 / direct=3 / weightb=1 / open_gop=0 / weightp=2 / keyint=300 / keyint_min=29 / scenecut=50 / intra_refresh=0 / rc_lookahead=100 / rc=2pass / mbtree=1 / bitrate=6500 / ratetol=1.0 / qcomp=0.60 / qpmin=0 / qpmax=69 / qpstep=4 / cplxblur=20.0 / qblur=0.5 / vbv_maxrate=50000 / vbv_bufsize=62500 / nal_hrd=none / filler=0 / ip_ratio=1.40 / aq=1:1.00
Default : Yes
Forced : No
Audio #1
ID : 2
Format : DTS 96/24
Format/Info : Digital Theater Systems
Commercial name : DTS 96/24
Codec ID : A_DTS
Duration : 1 h 38 min
Bit rate mode : Constant
Bit rate : 1 509 kb/s
Channel(s) : 6 channels
Channel layout : C L R Ls Rs LFE
Sampling rate : 96.0 kHz
Frame rate : 187.500 FPS (512 SPF)
Bit depth : 24 bits
Compression mode : Lossy
Stream size : 1.03 GiB (15%)
Title : DTS 5.1 24 bit
Default : Yes
Forced : No
Audio #2
ID : 3
Format : FLAC
Format/Info : Free Lossless Audio Codec
Codec ID : A_FLAC
Duration : 1 h 38 min
Bit rate mode : Variable
Bit rate : 1 811 kb/s
Channel(s) : 2 channels
Channel layout : L R
Sampling rate : 48.0 kHz
Frame rate : 11.719 FPS (4096 SPF)
Bit depth : 24 bits
Compression mode : Lossless
Stream size : 1.24 GiB (18%)
Title : FLAC 2.0 @ 24 bit
Writing library : libFLAC 1.2.1 (UTC 2007-09-17)
Default : No
Forced : No
Menu
00:00:00.000 : en: 01. I Remain
00:03:22.803 : en: 02. Woman Down
00:07:22.375 : en: 03. All I Really Want
00:13:09.922 : en: 04. You Learn
00:17:48.734 : en: 05. Guardian
00:22:43.329 : en: 06. Flinch
00:29:22.361 : en: 07. Forgiven
00:35:02.701 : en: 08. Hands Clean
00:39:49.120 : en: 09. I Remain
00:41:54.078 : en: 10. Citizen Of The Planet
00:47:22.339 : en: 11. Ironic
00:51:28.686 : en: 12. Havoc
00:57:17.801 : en: 13. Head Over Feet
01:01:59.316 : en: 14. Versions Of Violence
01:05:47.544 : en: 15. I Remain
01:07:38.554 : en: 16. You Oughta Know
01:13:05.982 : en: 17. Numb
01:21:03.292 : en: 18. Hand In My Pocket
01:26:07.095 : en: 19. Uninvited
01:32:48.496 : en: 20. Thank U

Скриншоты

If your ratio falls below 0.3, you will not be able to download Torrents! More about the rating.

[erzsebet.pl].t411234.torrent
Torrent: Registered   [ 2020-05-18 12:22 ]

Download .torrent

Download

34 KB

Status: checked
Completed: 16 times
Size: 6.73 GB
terms.php

#1

18-May-2020 12:22

[Profile]  [PM] 
Display posts:    

You cannot post new topics in this forum
You cannot reply to topics in this forum
You cannot edit your posts in this forum
You cannot delete your posts in this forum
You cannot vote in polls in this forum
You cannot attach files in this forum
You can download files in this forum
User agreement
For copyright holders
Advertise on this site

Скачайте на халяву через торрент на трекере erzsebet.pl

!ATTENTION!
The site does not give electronic versions of products, and is engaged only in a collecting and cataloguing of the references sent and published at a forum by our readers. If you are the legal owner of any submitted material and do not wish that the reference to it was in our catalogue, contact us and we shall immediately remove her. Files for an exchange on tracker are given by users of a site, and the administration does not bear the responsibility for their maintenance. The request to not fill in the files protected by copyrights, and also files of the illegal maintenance!