Дампфнудель блюз / Блюз с кнедликами / Dampfnudelblues (Эд Херцог / Ed Herzog) [2013, Германия, комедия, иронический детектив, WEB-DLRip] VO (porcellus) + Original Deu

DL-List and Torrent activity
Size:  1.46 GB   |    Registered:  6 months 16 days   |    Completed:  16 times
Seeders:  1  
 
   
 
 

YTS/YIFY ®

Longevity:
2 years 11 months
Posts:
41225

[Quote] 

Дампфнудель блюз / Блюз с кнедликами / Dampfnudelblues
Страна: Германия
Жанр: комедия, иронический детектив
Год выпуска: 2013
Продолжительность: 01:26:49
Перевод: одноголосый закадровый - porcellus
Субтитры: нет
Оригинальная аудиодорожка: немецкий
Режиссер: Эд Херцог / Ed Herzog
В ролях: Симон Шварц, Себастиан Беццель, Айзи Гульп, Эрнст Ханнавальд, Роберт Пальфрадер, Герд Ломайер, Томас Кюгель, Михаэль Островский, Фредерик Линкеманн, Макс Шмидт
Описание: У флегматичного полицейского Франца Эберхофера трудный период. Когда-то вместе с напарником Руди Биркенбергером они были светилами баварского угрозыска. Но косяк во время смены, и Франц оказался деревенским шерифом, а Руди вообще вылетел из полиции и мыкается охранником в супермаркете. Сельская жизнь не богата событиями, и Франц невольно обрастает рутиной. Когда однажды исчезает непопулярный директор школы Хёпфль, после того, как кто-то написал на стене его дома «Сдохни, свинья», Франц с энтузиазмом берется за расследование. Но круг полномочий участкового весьма узок и для выполнения щекотливых поручений подтягивается его бывший напарник Руди.

Доп. информация: Первый фильм франшизы по произведениям популярной баварской детективной писательницы Риты Фальк о Франце Эберхофере и Руди Биркенбергере.
Дампфнудель (нем. Dampfnudel) — немецкие булочки (кнедлики) на пару, характерные для южной немецкой и австрийской кухни, а также французского Эльзаса. (Википедия)
Сэмпл: http://multi-up.com/1261900
Качество видео: WEB-DLRip
Формат видео: AVI
Видео: 720x400 (1.80:1), 25 fps, XviD build 50 ~2008 kbps avg, 0.28 bit/pixel
Аудио 1: 48 kHz, AC3 Dolby Digital, 2/0 (L,R) ch, ~192 kbps русская
Аудио 2: 48 kHz, AC3 Dolby Digital, 2/0 (L,R) ch, ~192 kbps немецкая

MediaInfo

General
Complete name : H:\temp\Dampfnudelblues\Dampfnudelblues.2013.avi
Format : AVI
Format/Info : Audio Video Interleave
Format profile : OpenDML
File size : 1.46 GiB
Duration : 1 h 26 min
Overall bit rate : 2 400 kb/s
Writing application : Lavf57.71.100
Video
ID : 0
Format : MPEG-4 Visual
Format profile : Advanced [email protected]
Format settings, BVOP : 1
Format settings, QPel : No
Format settings, GMC : No warppoints
Format settings, Matrix : Default (MPEG)
Codec ID : XVID
Codec ID/Hint : XviD
Duration : 1 h 26 min
Bit rate : 1 997 kb/s
Width : 720 pixels
Height : 400 pixels
Display aspect ratio : 16:9
Frame rate : 25.000 FPS
Color space : YUV
Chroma subsampling : 4:2:0
Bit depth : 8 bits
Scan type : Progressive
Compression mode : Lossy
Bits/(Pixel*Frame) : 0.277
Stream size : 1.21 GiB (83%)
Writing library : XviD 1.2.1 (UTC 2008-12-04)
Audio #1
ID : 1
Format : AC-3
Format/Info : Audio Coding 3
Mode extension : CM (complete main)
Format settings, Endianness : Big
Codec ID : 2000
Duration : 1 h 26 min
Bit rate mode : Constant
Bit rate : 192 kb/s
Channel(s) : 2 channels
Channel positions : Front: L R
Sampling rate : 48.0 kHz
Frame rate : 31.250 FPS (1536 spf)
Bit depth : 16 bits
Compression mode : Lossy
Stream size : 119 MiB (8%)
Alignment : Aligned on interleaves
Interleave, duration : 32 ms (0.80 video frame)
Audio #2
ID : 2
Format : AC-3
Format/Info : Audio Coding 3
Mode extension : CM (complete main)
Format settings, Endianness : Big
Codec ID : 2000
Duration : 1 h 26 min
Bit rate mode : Constant
Bit rate : 192 kb/s
Channel(s) : 2 channels
Channel positions : Front: L R
Sampling rate : 48.0 kHz
Frame rate : 31.250 FPS (1536 spf)
Bit depth : 16 bits
Compression mode : Lossy
Stream size : 119 MiB (8%)
Alignment : Aligned on interleaves
Interleave, duration : 32 ms (0.80 video frame)

Скриншот c названием фильма

If your ratio falls below 0.3, you will not be able to download Torrents! More about the rating.

[erzsebet.pl].t411540.torrent
Torrent: Registered   [ 2020-05-18 13:02 ]

Download .torrent

Download

15 KB

Status: checked
Completed: 16 times
Size: 1.46 GB
terms.php

#1

18-May-2020 13:01

[Profile]  [PM] 
Display posts:    

You cannot post new topics in this forum
You cannot reply to topics in this forum
You cannot edit your posts in this forum
You cannot delete your posts in this forum
You cannot vote in polls in this forum
You cannot attach files in this forum
You can download files in this forum
User agreement
For copyright holders
Advertise on this site

Скачайте на халяву через торрент на трекере erzsebet.pl

!ATTENTION!
The site does not give electronic versions of products, and is engaged only in a collecting and cataloguing of the references sent and published at a forum by our readers. If you are the legal owner of any submitted material and do not wish that the reference to it was in our catalogue, contact us and we shall immediately remove her. Files for an exchange on tracker are given by users of a site, and the administration does not bear the responsibility for their maintenance. The request to not fill in the files protected by copyrights, and also files of the illegal maintenance!