Тяжелый побег / Трудный побег / Hard Run / Hot Ticket / Strip for Action (Лев Л. Спиро / Lev L. Spiro) [1995, США, Боевик, DVDRip] AVO (Сергей Визгунов) + Original Eng

DL-List and Torrent activity
Size:  1.44 GB   |    Registered:  6 months 9 days   |    Completed:  16 times
Seeders:  1  
 
   
 
 

KTR ®

Longevity:
8 months 9 days
Posts:
25914

[Quote] 

Тяжелый побег / Трудный побег / Hard Run / Hot Ticket / Strip for Action
Страна: США
Жанр: Боевик
Год выпуска: 1995
Продолжительность: 01:27:22
Перевод: Авторский (одноголосый закадровый) Сергей Визгунов
Субтитры: нет
Оригинальная аудиодорожка: английский
Режиссер: Лев Л. Спиро / Lev L. Spiro
В ролях: Мария Форд, Эмиль Левисетти, Кевин Контрерас, Кевин Уолкер, Никки Фриц, Боб МакФарланд, Джон Хьюи, Кевин Уильямсон, Гари Холлэнд
Описание: Совершив нападение на богатый стриптиз-клуб, гангстер Хеллек и его сумасшедший
напарник похищают крупную партию мафиозных денег. Не желая стать жертвами мести мафии,
грабители берут в заложники очаровательных стриптизерш и спасаются бегством, которое
заканчивается авиакатастрофой.
Теперь, оказавшись среди бескрайних пустошей и неприступных гор Невады без своего надежного
приятеля, Хеллек будет вынужден в одиночку противостоять не только дикой природе, но и
хитрости двух отважных девушек, которые сделают всё, чтобы вновь обрести свободу и жестоко
отомстить убийце за его злодеяния.
Доп. информация: Дорожка с С. Визгуновым синхронизирована и наложена ale_x2008 при помощи Adobe Audition, Sony Vegas и VirtualDubMod.
За оцифрованную с VHS дорожку благодарим - RoxMarty

Релиз
Сэмпл: https://yadi.sk/i/gusakrZEROXQsg
Качество видео: DVDRip [Hard Run (Тяжелый побег) DVD-5 4.05 GB]
Формат видео: AVI
Видео: XviD build 73, 704x544 (1.29:1), 25 fps, 1766 kbps avg, 0.18 bit/pixel
Аудио: AC3 Dolby Digital, 48000Hz 2/0 (L,R) ch (mono), 192 kbps avg
Аудио 2: 48 kHz, AC3 Dolby Digital, 3/2 (L,C,R,l,r) + LFE ch, ~384 kbps Eng

MediaInfo

Тяжелый побег (Hot Ticket) Vizgunov mono [by ale_x2008].avi
Format : AVI
Format/Info : Audio Video Interleave
File size : 1.44 GiB
Duration : 1 h 27 min
Overall bit rate : 2 358 kb/s
Movie name : Тяжелый побег (Hot Ticket) Vizgunov mono [by ale_x2008]
Director : by ale_x2008
Writing application : VirtualDubMod 1.5.10.2 (build 2540/release)
Copyright : Edich2
Comment : erzsebet.org
Video
ID : 0
Format : MPEG-4 Visual
Format profile : Advanced [email protected]
Format settings : BVOP1 / Custom Matrix
Format settings, BVOP : 1
Format settings, QPel : No
Format settings, GMC : No warppoints
Format settings, Matrix : Custom
Codec ID : XVID
Codec ID/Hint : XviD
Duration : 1 h 27 min
Bit rate : 1 767 kb/s
Width : 704 pixels
Height : 544 pixels
Display aspect ratio : 1.294
Frame rate : 25.000 FPS
Color space : YUV
Chroma subsampling : 4:2:0
Bit depth : 8 bits
Scan type : Progressive
Compression mode : Lossy
Bits/(Pixel*Frame) : 0.185
Stream size : 1.08 GiB (75%)
Writing library : XviD 73
Audio #1
ID : 1
Format : AC-3
Format/Info : Audio Coding 3
Commercial name : Dolby Digital
Codec ID : 2000
Duration : 1 h 27 min
Bit rate mode : Constant
Bit rate : 192 kb/s
Channel(s) : 2 channels
Channel layout : L R
Sampling rate : 48.0 kHz
Frame rate : 31.250 FPS (1536 SPF)
Compression mode : Lossy
Stream size : 120 MiB (8%)
Alignment : Split across interleaves
Interleave, duration : 40 ms (1.00 video frame)
Interleave, preload duratio : 500 ms
Service kind : Complete Main
Audio #2
ID : 2
Format : AC-3
Format/Info : Audio Coding 3
Commercial name : Dolby Digital
Codec ID : 2000
Duration : 1 h 27 min
Bit rate mode : Constant
Bit rate : 384 kb/s
Channel(s) : 6 channels
Channel layout : L R C LFE Ls Rs
Sampling rate : 48.0 kHz
Frame rate : 31.250 FPS (1536 SPF)
Compression mode : Lossy
Stream size : 240 MiB (16%)
Alignment : Split across interleaves
Interleave, duration : 40 ms (1.00 video frame)
Interleave, preload duratio : 500 ms
Service kind : Complete Main

If your ratio falls below 0.3, you will not be able to download Torrents! More about the rating.

[erzsebet.pl].t411541.torrent
Torrent: Registered   [ 2020-05-18 13:02 ]

Download .torrent

Download

15 KB

Status: checked
Completed: 16 times
Size: 1.44 GB
terms.php

#1

18-May-2020 13:01

[Profile]  [PM] 
Display posts:    

You cannot post new topics in this forum
You cannot reply to topics in this forum
You cannot edit your posts in this forum
You cannot delete your posts in this forum
You cannot vote in polls in this forum
You cannot attach files in this forum
You can download files in this forum
User agreement
For copyright holders
Advertise on this site

Скачайте на халяву через торрент на трекере erzsebet.pl

!ATTENTION!
The site does not give electronic versions of products, and is engaged only in a collecting and cataloguing of the references sent and published at a forum by our readers. If you are the legal owner of any submitted material and do not wish that the reference to it was in our catalogue, contact us and we shall immediately remove her. Files for an exchange on tracker are given by users of a site, and the administration does not bear the responsibility for their maintenance. The request to not fill in the files protected by copyrights, and also files of the illegal maintenance!