Отрава / Яд / Poison (Тодд Хейнс / Todd Haynes) [1991, США, Драма, VHSRip] [Full Screen] AVO (Антон Алексеев)

DL-List and Torrent activity
Size:  1.37 GB   |    Registered:  6 months 16 days   |    Completed:  16 times
Seeders:  1  
 
   
 
 

KTR ®

Longevity:
8 months 15 days
Posts:
25933

[Quote] 

Отрава / Яд / Poison
[Full Screen]
Страна: США
Жанр: Драма
Год выпуска: 1991
Продолжительность: 01:24:15.
Перевод: Авторский (одноголосый закадровый) Антон Алексеев
Субтитры: нет
Режиссер: Тодд Хейнс / Todd Haynes
В ролях: Эдит Микс, Милли Уайт, Бак Смит, Энн Джотта, Лидия ЛаФлер, Йен Немсер, Роб ЛаБелль,
Ивэн Дунский, Марина Лутс, Бэрри Кэссиди
Описание: 1. Аннотация от alenavova
Экранизация трех романов Жана Жене, в которой странным образом переплелись три, на первый взгляд никак не связанные между собой истории: "Hero" ("Герой") - о 7-летнем мальчике Ричарде Биконе, который 3 июня 1985-го года застрелил своего отца, а после этого, как утверждает его мать, вознесся на небо; "Homo" ("Гомо") - о Джоне Бруме, жившем в 20-е-е-40-е годы, проведшем почти всю жизнь в исправительных домах и тюрьмах, где стал законченным гомосексуалистом; "Horror" ("Ужас") - о докторе Томасе Грэйвзе, изообретшем лет 50 назад некую жидкость, гарантировавшую, как он полагал, сексуальные откровения, выпившем эту жидкость и превратившемся в прокаженного и сексуального маньяка-убийцу... Сложный для восприятия фильм отличается оригинальным авторским решением, нестандартной манерой съемки и посвящен людям,"взлетавшим выше других и падали ниже других". "Они хотели прикоснуться к мечте, что бросало их в бездну..." Цвет нервно переходит в монохром и черно-белые кадры, которые усиливает психологизм ленты.
2. По мотивам романов Жане Жене «Наша леди цветов», «Чудо розы», «Записки вора». По
утверждению некоторых критиков, один из самых оригинальных американских фильмов за многие
годы. В своей дебютной картине, получившей в 1991 году приз Ассоциации сексуальных
меньшинств на Форуме молодого кино, что ежегодно проходит в рамках Берлинского МКФ,
режиссер рассмотрел три совершенно разных истории, сделанных в разных стилях и
переплетенных в одно целое. История «Герой» рассказывает об отцеубийстве, совершенным
молодым парнем, в сегменте «Ужас» ученый занимается исследованием проблемы пола влиянием
фильмов ужасов на американское общество. Третья история «Человек» (Homo) рассматривает
проблемы секса на примере преступника-рецидивиста и новенького заключенного во французской
тюрьме 40-х годов. (М. Иванов)
Доп. информация: Оцифровка VHS (личный архив) и получение VHSRip alenavova
Эксклюзив для erzsebet.org. При размещении данного релиза на других сайтах ссылка на автора alenavova обязательна.
Релиз
Сэмпл: https://yadi.sk/i/vdAwvoCDo54-7g
Качество видео: VHSRip
Формат видео: AVI
Видео: 704x528 (1.33:1), 25 fps, XviD build 73 ~2119 kbps avg, 0.23 bit/pixel
Аудио: 48 kHz, AC3 Dolby Digital, 2/0 (L,R) ch, ~192 kbps

MediaInfo

Отрава - Poison [by alenavova] FS.avi
Format : AVI
Format/Info : Audio Video Interleave
File size : 1.37 GiB
Duration : 1 h 24 min
Overall bit rate : 2 322 kb/s
Movie name : Отрава - Poison [by alenavova] FS
Director : by alenavova
Writing application : VirtualDubMod 1.5.10.3 | www.virtualdub-fr.org || (build 2550/release)
Copyright : Edich2
Comment : erzsebet.org
Video
ID : 0
Format : MPEG-4 Visual
Format profile : Advanced [email protected]
Format settings : BVOP1 / Custom Matrix
Format settings, BVOP : 1
Format settings, QPel : No
Format settings, GMC : No warppoints
Format settings, Matrix : Custom
Codec ID : XVID
Codec ID/Hint : XviD
Duration : 1 h 24 min
Bit rate : 2 120 kb/s
Width : 704 pixels
Height : 528 pixels
Display aspect ratio : 4:3
Frame rate : 25.000 FPS
Color space : YUV
Chroma subsampling : 4:2:0
Bit depth : 8 bits
Scan type : Progressive
Compression mode : Lossy
Bits/(Pixel*Frame) : 0.228
Stream size : 1.25 GiB (91%)
Writing library : XviD 73
Audio
ID : 1
Format : AC-3
Format/Info : Audio Coding 3
Commercial name : Dolby Digital
Codec ID : 2000
Duration : 1 h 24 min
Bit rate mode : Constant
Bit rate : 192 kb/s
Channel(s) : 2 channels
Channel layout : L R
Sampling rate : 48.0 kHz
Frame rate : 31.250 FPS (1536 SPF)
Compression mode : Lossy
Stream size : 116 MiB (8%)
Alignment : Split across interleaves
Interleave, duration : 40 ms (1.00 video frame)
Interleave, preload duratio : 500 ms
Service kind : Complete Main

Скриншоты


If your ratio falls below 0.3, you will not be able to download Torrents! More about the rating.

[erzsebet.pl].t411544.torrent
Torrent: Registered   [ 2020-05-18 13:02 ]

Download .torrent

Download

14 KB

Status: checked
Completed: 16 times
Size: 1.37 GB
terms.php

#1

18-May-2020 13:01

[Profile]  [PM] 
Display posts:    

You cannot post new topics in this forum
You cannot reply to topics in this forum
You cannot edit your posts in this forum
You cannot delete your posts in this forum
You cannot vote in polls in this forum
You cannot attach files in this forum
You can download files in this forum
User agreement
For copyright holders
Advertise on this site

Скачайте на халяву через торрент на трекере erzsebet.pl

!ATTENTION!
The site does not give electronic versions of products, and is engaged only in a collecting and cataloguing of the references sent and published at a forum by our readers. If you are the legal owner of any submitted material and do not wish that the reference to it was in our catalogue, contact us and we shall immediately remove her. Files for an exchange on tracker are given by users of a site, and the administration does not bear the responsibility for their maintenance. The request to not fill in the files protected by copyrights, and also files of the illegal maintenance!