Обыкновенный преступник / Очень милый преступник / Ordinary Decent Criminal (Тадеус О’Салливан / Thaddeus O'Sullivan) [2000, Ирландия, Германия, Великобритания, США, криминал, комедия, DVDRip] VO + Original Eng

DL-List and Torrent activity
Size:  1.46 GB   |    Registered:  6 months 8 days   |    Completed:  16 times
Seeders:  1  
 
   
 
 

KTR ®

Longevity:
8 months 7 days
Posts:
25903

[Quote] 

Обыкновенный преступник / Очень милый преступник / Ordinary Decent Criminal
«Michael just loves taking the law into his own hands!»
Страна: Ирландия, Германия, Великобритания, США
Жанр: Криминальная комедия
Год выпуска: 2000
Продолжительность: 01:34:22
Перевод: Одноголосый закадровый [ПОМОГИТЕ ОПОЗНАТЬ]
Субтитры: нет
Оригинальная аудиодорожка: английский
Режиссер: Тадеус О’Салливан / Thaddeus O'Sullivan
В ролях: Кевин Спейси, Линда Фиорентино, Питер Муллан, Стивен Диллэйн, Хелен Бексендейл,
Дэвид Хейман, Патрик Мэлахайд, Джерард МакСорли, Дэвид Келли, Гари Лайдон
Описание: Ограбление — это то, что Майкл Линч всегда делает с блеском. Он берет банки один за
другим, не оставляя полиции никаких шансов. Копы сбиваются с ног, гоняясь за ним, но не могут
добыть ни единой улики!
Все знают, что он лидер преступной группы, но засадить его за решетку не удается никому! Линч
хитер и изобретателен. Он — гений ограблений. Ему преданы свои и его ненавидят чужие. И Линчу
определенно нравится такая жизнь, где он — герой!
Доп. информация: Дорожка с VO синхронизирована и наложена ale_x2008 при помощи Adobe Audition, Sony Vegas и VirtualDubMod.
За оцифрованную с VHS дорожку благодарим - RockNick

Релиз
Сэмпл: https://yadi.sk/i/tO8rEW50ZoajEA
Качество видео: DVDRip
Формат видео: AVI
Видео: XviD build 65, 704x400 (1.76:1), 23.976 fps, 1811 kbps avg, 0.27 bit/pixel
Аудио: AC3 Dolby Digital, 48000Hz, 2/0 (L,R) ch (mono), 192 kbps avg
Аудио 2: AC3 Dolby Digital, 48000Hz, 2/0 (L,R) ch, 192 kbps avg

MediaInfo

Обыкновенный преступник (Ordinary Decent Criminal) BDRip [by ale_x2008].avi
Format : AVI
Format/Info : Audio Video Interleave
File size : 1.46 GiB
Duration : 1 h 34 min
Overall bit rate : 2 210 kb/s
Movie name : Обыкновенный преступник / Ordinary Decent Criminal (2000) BDRip
Director : by ale_x2008
Writing application : VirtualDubMod 1.5.10.2 (build 2540/release)
Copyright : Edich2
Comment : erzsebet.org
Video
ID : 0
Format : MPEG-4 Visual
Format profile : Advanced [email protected]
Format settings : BVOP1 / Custom Matrix
Format settings, BVOP : 1
Format settings, QPel : No
Format settings, GMC : No warppoints
Format settings, Matrix : Custom
Codec ID : XVID
Codec ID/Hint : XviD
Duration : 1 h 34 min
Bit rate : 1 812 kb/s
Width : 704 pixels
Height : 400 pixels
Display aspect ratio : 16:9
Frame rate : 23.976 (24000/1001) FPS
Color space : YUV
Chroma subsampling : 4:2:0
Bit depth : 8 bits
Scan type : Progressive
Compression mode : Lossy
Bits/(Pixel*Frame) : 0.268
Stream size : 1.19 GiB (82%)
Writing library : XviD 65
Audio #1
ID : 1
Format : AC-3
Format/Info : Audio Coding 3
Commercial name : Dolby Digital
Codec ID : 2000
Duration : 1 h 34 min
Bit rate mode : Constant
Bit rate : 192 kb/s
Channel(s) : 2 channels
Channel layout : L R
Sampling rate : 48.0 kHz
Frame rate : 31.250 FPS (1536 SPF)
Compression mode : Lossy
Stream size : 130 MiB (9%)
Alignment : Split across interleaves
Interleave, duration : 42 ms (1.00 video frame)
Interleave, preload duratio : 500 ms
Service kind : Complete Main
Audio #2
ID : 2
Format : AC-3
Format/Info : Audio Coding 3
Commercial name : Dolby Digital
Codec ID : 2000
Duration : 1 h 34 min
Bit rate mode : Constant
Bit rate : 192 kb/s
Channel(s) : 2 channels
Channel layout : L R
Sampling rate : 48.0 kHz
Frame rate : 31.250 FPS (1536 SPF)
Compression mode : Lossy
Stream size : 130 MiB (9%)
Alignment : Split across interleaves
Interleave, duration : 42 ms (1.00 video frame)
Interleave, preload duratio : 500 ms
Service kind : Complete Main

Скриншоты


If your ratio falls below 0.3, you will not be able to download Torrents! More about the rating.

[erzsebet.pl].t411547.torrent
Torrent: Registered   [ 2020-05-18 13:02 ]

Download .torrent

Download

15 KB

Status: checked
Completed: 16 times
Size: 1.46 GB
terms.php

#1

18-May-2020 13:01

[Profile]  [PM] 
Display posts:    

You cannot post new topics in this forum
You cannot reply to topics in this forum
You cannot edit your posts in this forum
You cannot delete your posts in this forum
You cannot vote in polls in this forum
You cannot attach files in this forum
You can download files in this forum
User agreement
For copyright holders
Advertise on this site

Скачайте на халяву через торрент на трекере erzsebet.pl

!ATTENTION!
The site does not give electronic versions of products, and is engaged only in a collecting and cataloguing of the references sent and published at a forum by our readers. If you are the legal owner of any submitted material and do not wish that the reference to it was in our catalogue, contact us and we shall immediately remove her. Files for an exchange on tracker are given by users of a site, and the administration does not bear the responsibility for their maintenance. The request to not fill in the files protected by copyrights, and also files of the illegal maintenance!