Миротворец / The Peacemaker (Мими Ледер / Мими Ледер) [1997, США, боевик, триллер, VHSRip -> DVD] [Fullscreen] DVO (Премьер Видео Фильм)

DL-List and Torrent activity
Size:  3.93 GB   |    Registered:  6 months 10 days   |    Completed:  16 times
Seeders:  1  
 
   
 
 

KTR ®

Longevity:
8 months 9 days
Posts:
25914

[Quote] 

Миротворец / The Peacemaker / Fullscreen
Страна: США
Жанр: боевик, триллер
Год выпуска: 1997
Продолжительность: 01:58:46
Перевод: Профессиональный (двухголосый закадровый) Премьер Видео Фильм
Субтитры: нет
Оригинальная аудиодорожка: нет
Режиссер: Мими Ледер / Мими Ледер
В ролях: Джордж Клуни, Николь Кидман, Марчел Юреш, Александр Балуев, Рене Медвесек, Гари Вернтц, Рэндолл Батинкофф, Джим Хейни, Александр Штробеле, Холт Маккэллани, Майкл Ботмэн, Джоан Коуплэнд, Карлос Гомес, Армин Мюллер-Шталь, Александр Песков, Александр Яцко, Александр Кузнецов...
Описание: Сюжет фильма основан на реальных событиях, которые недавно стали известны благодаря раскрытым секретным архивам. Русский поезд, который везет ядерные ракеты с целью их уничтожения, частично поврежден взрывом где-то в отдаленном районе на юге России.
Соответствующие сигналы поступают в ядерный центр американского Белого Дома. Вскоре выясняется, что оружие находится в руках международных террористов…
(Кинопоиск)
Доп. информация: Оцифровка лицензионной VHS из собственной коллекции.
Fullscreen!
Сэмпл: http://sendfile.su/1561389
Качество видео: VHSRip -> DVD
Формат видео: DVD-Video
Видео: MPEG2, 720х576, 4:3, 25,000 кадров/сек, 4380 Кбит/сек
Аудио: AС3, 48,0 КГц, 256 Кбит/сек, 2 канала

MediaInfo

Общее
Полное имя : G:\torrents\The Peacemaker\VIDEO_TS\VTS_01_1.VOB
Формат : MPEG-PS
Размер файла : 1 024 Мбайт
Продолжительность : 30 м. 11 с.
Режим общего битрейта : Постоянный
Общий поток : 4 742 Кбит/сек
Видео
Идентификатор : 224 (0xE0)
Формат : MPEG Video
Версия формата : Version 2
Профиль формата : [email protected]
Настройки формата : CustomMatrix / BVOP
Параметр BVOP формата : Да
Параметр матрицы формата : Выборочная
Параметр GOP формата : M=3, N=12
Структура изображения : Frame
Продолжительность : 30 м. 11 с.
Вид битрейта : Постоянный
Битрейт : 4 380 Кбит/сек
Ширина : 720 пикселей
Высота : 576 пикселей
Соотношение сторон : 4:3
Частота кадров : 25,000 кадров/сек
Стандарт вещания : PAL
Цветовое пространство : YUV
Субдискретизация насыщенности : 4:2:0
Битовая глубина : 8 бит
Тип развёртки : Чересстрочная
Порядок развёртки : Верхнее поле первое
Метод сжатия : С потерями
Бит/(Пиксели*Кадры) : 0.422
Временной код первого кадра : 00:00:00:00
Оригинал временного кода : Group of pictures header
GOP, открыто/закрыто : Открыто
GOP, открыто/закрыто на первом кадре : Закрыто
Размер потока : 948 Мбайт (93%)
Аудио
Идентификатор : 189 (0xBD)-128 (0x80)
Формат : AC-3
Формат/Информация : Audio Coding 3
Коммерческое название : Dolby Digital
Режим смешивания : DVD-Video
Продолжительность : 30 м. 10 с.
Вид битрейта : Постоянный
Битрейт : 256 Кбит/сек
Каналы : 2 канала
Channel layout : L R
Частота : 48,0 КГц
Частота кадров : 31,250 кадров/сек (1536 SPF)
Метод сжатия : С потерями
Размер потока : 55,3 Мбайт (5%)
Service kind : Complete Main
Меню

Скриншот c названием фильма

If your ratio falls below 0.3, you will not be able to download Torrents! More about the rating.

[erzsebet.pl].t411549.torrent
Torrent: Registered   [ 2020-05-18 13:02 ]

Download .torrent

Download

20 KB

Status: checked
Completed: 16 times
Size: 3.93 GB
terms.php

#1

18-May-2020 13:01

[Profile]  [PM] 
Display posts:    

You cannot post new topics in this forum
You cannot reply to topics in this forum
You cannot edit your posts in this forum
You cannot delete your posts in this forum
You cannot vote in polls in this forum
You cannot attach files in this forum
You can download files in this forum
User agreement
For copyright holders
Advertise on this site

Скачайте на халяву через торрент на трекере erzsebet.pl

!ATTENTION!
The site does not give electronic versions of products, and is engaged only in a collecting and cataloguing of the references sent and published at a forum by our readers. If you are the legal owner of any submitted material and do not wish that the reference to it was in our catalogue, contact us and we shall immediately remove her. Files for an exchange on tracker are given by users of a site, and the administration does not bear the responsibility for their maintenance. The request to not fill in the files protected by copyrights, and also files of the illegal maintenance!