Воспоминания об убийстве / Memories of Murder / Salinui chueok (Пон Джун-хо / Bong Joon-ho) [2003, Южная Корея, детектив, криминал, драма, триллер, BDRip] Dub

DL-List and Torrent activity
Size:  1.46 GB   |    Registered:  6 months 14 days   |    Completed:  16 times
Seeders:  1  
 
   
 
 

PriХан ®

Longevity:
2 years 11 months
Posts:
53906

[Quote] 

Воспоминания об убийстве / Salinui chueok- Год выпуска: 2003
Страна: Корея Южная
Жанр: детектив, криминал, драма, триллер
Продолжительность: 02:11:08
Перевод: Профессиональный (полное дублирование)
Субтитры: нет-Режиссер:
Пон Джун-хо / Bong Joon-ho-В ролях:
Сон Кан-хо, Ким Сан-гён, Ким Рве-ха, Сон Джэ-хо, Пён Хи-бон, Ко Со-хи, Рю Тхэ-хо, Пак Но-щик, Пак Хэ-иль, Чон Ми-сон-Описание:
В 1986 году в корейском провинциальном городе Хвасон две местные женщины были убиты одним и тем же извращённым способом. Детектив Пак Ту-ман и его помощник Чо Ён-гу со всем возможным рвением пытаются найти убийцу. Точнее — заставить признаться в содеянном любого подозреваемого, и делают это самыми жестокими методами. К ним на помощь прибывает детектив Со Тхэ-юн из Сеула, чтобы провести расследование и вычислить маньяка на основе улик и доказательств. Тем временем убийства продолжаются.-Релиз групп | | IMDB | КиноПоиск | Сэмпл |-Качество: BDRip [MEMORIES_OF_MURDERER_2003_RMX_BLUEBIRD]
Формат: AVI
Видео: 704x384 (1.83:1), 23.976 fps, XviD build 67 ~1200 kbps avg, 0.19 bit/pixel
Аудио: 48 kHz, AC3 Dolby Digital, 3/2 (L,C,R,l,r) + LFE ch, ~384.00 kbps avg - iTunes Russia-

Скриншоты

-

MediaInfo

Код:Общее
Полное имя : D:\Vospominaniya_ob_ubyistve_2003_BDRip_by_Dalemake.avi
Формат : AVI
Формат/Информация : Audio Video Interleave
Размер файла : 1,46 Гбайт
Продолжительность : 2 ч. 11 м.
Общий поток : 1 593 Кбит/сек
Программа кодирования : VirtualDubMod 1.5.10.3 | www.virtualdub-fr.org || (build 2550/release)
Библиотека кодирования : VirtualDubMod build 2550/release
Видео
Идентификатор : 0
Формат : MPEG-4 Visual
Профиль формата : Advanced [email protected]
Настройки формата : BVOP1 / Custom Matrix
Параметр BVOP формата : 1
Параметр QPel формата : Нет
Параметр GMC формата : Без точки перехода
Параметр матрицы формата : Выборочная
Идентификатор кодека : XVID
Идентификатор кодека/Подсказка : XviD
Продолжительность : 2 ч. 11 м.
Битрейт : 1 200 Кбит/сек
Ширина : 704 пикселя
Высота : 384 пикселя
Соотношение сторон : 1,85:1
Частота кадров : 23,976 (24000/1001) кадра/сек
Цветовое пространство : YUV
Субдискретизация насыщенности : 4:2:0
Битовая глубина : 8 бит
Тип развёртки : Прогрессивная
Метод сжатия : С потерями
Бит/(Пиксели*Кадры) : 0.185
Размер потока : 1,10 Гбайт (75%)
Библиотека кодирования : XviD 67
Аудио
Идентификатор : 1
Формат : AC-3
Формат/Информация : Audio Coding 3
Коммерческое название : Dolby Digital
Идентификатор кодека : 2000
Продолжительность : 2 ч. 10 м.
Вид битрейта : Постоянный
Битрейт : 384 Кбит/сек
Каналы : 6 каналов
Channel layout : L R C LFE Ls Rs
Частота : 48,0 КГц
Частота кадров : 31,250 кадров/сек (1536 SPF)
Метод сжатия : С потерями
Размер потока : 360 Мбайт (24%)
Выравнивание : Разделение по промежуткам
Продолжительность промежутка : 42 мс. (1,00 видеокадр)
Время предзагрузки промежутка : 500 мс.
Service kind : Complete Main
-

If your ratio falls below 0.3, you will not be able to download Torrents! More about the rating.

[erzsebet.pl].t411551.torrent
Torrent: Registered   [ 2020-05-18 13:02 ]

Download .torrent

Download

15 KB

Status: checked
Completed: 16 times
Size: 1.46 GB
terms.php

#1

18-May-2020 13:01

[Profile]  [PM] 
Display posts:    

You cannot post new topics in this forum
You cannot reply to topics in this forum
You cannot edit your posts in this forum
You cannot delete your posts in this forum
You cannot vote in polls in this forum
You cannot attach files in this forum
You can download files in this forum
User agreement
For copyright holders
Advertise on this site

Скачайте на халяву через торрент на трекере erzsebet.pl

!ATTENTION!
The site does not give electronic versions of products, and is engaged only in a collecting and cataloguing of the references sent and published at a forum by our readers. If you are the legal owner of any submitted material and do not wish that the reference to it was in our catalogue, contact us and we shall immediately remove her. Files for an exchange on tracker are given by users of a site, and the administration does not bear the responsibility for their maintenance. The request to not fill in the files protected by copyrights, and also files of the illegal maintenance!