Парень из Китайского квартала / Парень из Чайна-тауна / Chinatown Kid / Tang ren jie xiao zi (Чанг Че / Cheh Chang) [1977, Гонконг, Боевик, драма, VHSRip] [Promo Copy] [Гонконгская версия, неремастированная] AVO (Антон Алексеев)

DL-List and Torrent activity
Size:  1.37 GB   |    Registered:  6 months 11 days   |    Completed:  16 times
Seeders:  1  
 
   
 
 

PriХан ®

Longevity:
2 years 11 months
Posts:
53873

[Quote] 

Парень из Китайского квартала / Парень из Чайна-тауна / Chinatown Kid / Tang ren jie xiao zi
Гонконгская версия, не ремастированная | Promo Copy
«He was the Leader of the White Dragons...the Toughest Gang on any Turf!»
Страна: Гонконг
Жанр: Боевик, драма
Год выпуска: 1977
Продолжительность: 01:28:20
Перевод: Авторский (одноголосый закадровый) Антон Алексеев
Субтитры: нет
Режиссер: Чанг Че / Cheh Chang
В ролях: Александр Фу Шэн, Сиу Ям-Ям, Сунь Чень, Филлип Квок, Цай Хун, Ширли Юй, Вонг Чин-Хо, Дженни Цэн, Джонни Ван, Ло Мэн, Ян Чичин, Ван Ханьчэнь, Ван Чин-Лян, Вонг Лик, Джейми Люк, Джеймс Вонг, Дик Вэй, Кара Хуэй, Кеунг Хон, Ку Куань-Чун, Лам Фай-Вонг
Описание: Стремясь выжить в бандитских войнах в Гонконге, молодой уличный боец Тань Дун успешно расправляется со всеми своими соперниками, пока не натыкается на людей из гонконгской триады. Парень вынужден бежать в Сан-Франциско, где снова связывается с бандами преступников, но на этот раз Тань Дун прокладывает себе путь на вершину самой мощной преступной организации города, боссом которой является Белый Дракон. Начальство Тань Дуна оборачивается кровопролитным противостоянием за контроль над всем китайским кварталом. И в конечном счёте перед новым главой организации встаёт вопрос — использовать свои навыки ради большей власти или помочь своему другу Ян Цзяньвэню.
Доп. информация: Оцифровку VHS для релиза предоставил Raptorio Rio.
Релиз
Сэмпл: https://yadi.sk/i/FVnE0EDvjQ9uxA
Качество видео: VHSRip
Формат видео: AVI
Видео: 704x528 (1.33:1), 25 fps, XviD build 73 ~2012 kbps avg, 0.22 bit/pixel
Аудио: 48 kHz, AC3 Dolby Digital, 2/0 (L,R) ch, ~192 kbps

MediaInfo

Парень из Чайна-тауна - Chinatown Kid [by Raptorio Rio].avi
Format : AVI
Format/Info : Audio Video Interleave
File size : 1.37 GiB
Duration : 1 h 28 min
Overall bit rate : 2 215 kb/s
Movie name : Парень из Чайна-тауна - Chinatown Kid [by Raptorio Rio]
Director : by Raptorio Rio
Writing application : VirtualDubMod 1.5.10.3 | www.virtualdub-fr.org || (build 2550/release)
Copyright : Edich2
Comment : erzsebet.org
Video
ID : 0
Format : MPEG-4 Visual
Format profile : Advanced [email protected]
Format settings : BVOP1 / Custom Matrix
Format settings, BVOP : 1
Format settings, QPel : No
Format settings, GMC : No warppoints
Format settings, Matrix : Custom
Codec ID : XVID
Codec ID/Hint : XviD
Duration : 1 h 28 min
Bit rate : 2 013 kb/s
Width : 704 pixels
Height : 528 pixels
Display aspect ratio : 4:3
Frame rate : 25.000 FPS
Color space : YUV
Chroma subsampling : 4:2:0
Bit depth : 8 bits
Scan type : Progressive
Compression mode : Lossy
Bits/(Pixel*Frame) : 0.217
Stream size : 1.24 GiB (91%)
Writing library : XviD 73
Audio
ID : 1
Format : AC-3
Format/Info : Audio Coding 3
Commercial name : Dolby Digital
Codec ID : 2000
Duration : 1 h 28 min
Bit rate mode : Constant
Bit rate : 192 kb/s
Channel(s) : 2 channels
Channel layout : L R
Sampling rate : 48.0 kHz
Frame rate : 31.250 FPS (1536 SPF)
Compression mode : Lossy
Stream size : 121 MiB (9%)
Alignment : Split across interleaves
Interleave, duration : 40 ms (1.00 video frame)
Interleave, preload duratio : 500 ms
Service kind : Complete Main

Скриншоты


If your ratio falls below 0.3, you will not be able to download Torrents! More about the rating.

[erzsebet.pl].t411552.torrent
Torrent: Registered   [ 2020-05-18 13:02 ]

Download .torrent

Download

14 KB

Status: checked
Completed: 16 times
Size: 1.37 GB
terms.php

#1

18-May-2020 13:01

[Profile]  [PM] 
Display posts:    

You cannot post new topics in this forum
You cannot reply to topics in this forum
You cannot edit your posts in this forum
You cannot delete your posts in this forum
You cannot vote in polls in this forum
You cannot attach files in this forum
You can download files in this forum
User agreement
For copyright holders
Advertise on this site

Скачайте на халяву через торрент на трекере erzsebet.pl

!ATTENTION!
The site does not give electronic versions of products, and is engaged only in a collecting and cataloguing of the references sent and published at a forum by our readers. If you are the legal owner of any submitted material and do not wish that the reference to it was in our catalogue, contact us and we shall immediately remove her. Files for an exchange on tracker are given by users of a site, and the administration does not bear the responsibility for their maintenance. The request to not fill in the files protected by copyrights, and also files of the illegal maintenance!