Лесоруб / Timberjack (Джозеф Кэйн / Joseph Kane) [1955, США, вестерн, приключения, TVRip] VO (Nastia) + Original Eng + Sub (Rus)

Reply to topic
DL-List and Torrent activity
Size:  1.45 GB   |    Registered:  3 years 1 month   |    Completed:  16 times

Seeder not seen: Never

 
   
 
 
Author Message

erzsebet.org ®

Longevity: 3 years 1 month

Posts: 47596

Post 02-Dec-2017 16:41

[Quote]

Лесоруб / Timberjack
Страна: США
Жанр: вестерн, приключения
Год выпуска: 1955
Продолжительность: 01:29:46
Перевод: Одноголосый закадровый Nastia
Субтитры: Русские (forced на песни)
Оригинальная аудиодорожка: Английский
Режиссер: Джозеф Кэйн / Joseph Kane
В ролях: Стерлинг Хейден, Вера Ралстон, Дэвид Брайан, Адольф Менжу, Хоаги Кармайкл, Чилл Уиллс, Джим Дэвис, Ховард Петри, Йен МакДональд, Элиша Кук мл.
Описание: Вернувшись в родные края, Тим Чипмен узнает, что его отец, занимавшийся лесозаготовками, жестоко убит. В преступлении многие подозревают местного воротилу Бруннера, давно пытавшегося прибрать к рукам бизнес Чипмена-старшего, но никто из местных жителей не решается вступить в открытую конфронтацию с преступником, подмявшим под себя всю власть в городке....
Доп. информация: Фильм озвучен специально для: 7букв Вестерн / группа Джесси Джеймса,
При участии ВК—группы Душевное кино. Видеоряд взят отсюда http://erzsebet.org/forum/viewtopic.php?t=5418212
Отдельная благодарность Alassea за предоставленную русскую звуковую дорожку.
Перевод: Антон Каптелов. Закадровый текст: Nastia.
Сэмпл: http://multi-up.com/1164387
Качество видео: TVRip
Формат видео: AVI
Видео: XviD, 704x528, (4:3), 25,000 fps, 1982 Кбит/с, 8 бит
Аудио: Русский (АС3, 2 ch (Front: L R), 48,0 KHz, 192 Kbps)
Аудио 2: Английский (MP3, 2 ch, 48,0 KHz, 128 Kbps)

MediaInfo

Общее
Полное имя : F:\Видеофильмы\В и д е о\Лесоруб_(вестерн, приключения 1955 год)_Leonard_Lew\Лесоруб_(вестерн, приключения 1955 год)_Leonard_Lew.avi
Формат : AVI
Формат/Информация : Audio Video Interleave
Размер файла : 1,45 Гбайт
Продолжительность : 1 ч. 29 м.
Общий поток : 2317 Кбит/сек
Программа кодирования : VirtualDubMod 1.5.10.2 (build 2540/release)
Библиотека кодирования : VirtualDubMod build 2540/release
Видео
Идентификатор : 0
Формат : MPEG-4 Visual
Профиль формата : Advanced [email protected]
Параметр BVOP формата : 2
Параметр QPel формата : Нет
Параметр GMC формата : Без точки перехода
Параметр матрицы формата : Default (MPEG)
Идентификатор кодека : XVID
Идентификатор кодека/Подсказка : XviD
Продолжительность : 1 ч. 29 м.
Битрейт : 1982 Кбит/сек
Ширина : 704 пикселя
Высота : 528 пикселей
Соотношение сторон : 4:3
Частота кадров : 25,000 кадров/сек
Цветовое пространство : YUV
Субдискретизация насыщенности : 4:2:0
Битовая глубина : 8 бит
Тип развёртки : Прогрессивная
Метод сжатия : С потерями
Бит/(Пиксели*Кадры) : 0.213
Размер потока : 1,24 Гбайт (86%)
Библиотека кодирования : XviD 67
Аудио #1
Идентификатор : 1
Формат : AC-3
Формат/Информация : Audio Coding 3
Расширение режима : CM (complete main)
Параметр Endianness формата : Big
Идентификатор кодека : 2000
Продолжительность : 1 ч. 29 м.
Вид битрейта : Постоянный
Битрейт : 192 Кбит/сек
Каналы : 2 канала
Расположение каналов : Front: L R
Частота : 48,0 КГц
Частота кадров : 31,250 кадров/сек (1536 spf)
Метод сжатия : С потерями
Размер потока : 123 Мбайт (8%)
Выравнивание : Разделение по промежуткам
Продолжительность промежутка : 40 мс. (1,00 видеокадр)
Время предзагрузки промежутка : 500 мс.
Аудио #2
Идентификатор : 2
Формат : MPEG Audio
Версия формата : Version 1
Профиль формата : Layer 3
Идентификатор кодека : 55
Идентификатор кодека/Подсказка : MP3
Продолжительность : 1 ч. 29 м.
Вид битрейта : Постоянный
Битрейт : 128 Кбит/сек
Каналы : 2 канала
Частота : 48,0 КГц
Метод сжатия : С потерями
Размер потока : 82,2 Мбайт (6%)
Выравнивание : Соединение по промежуткам
Продолжительность промежутка : 40 мс. (1,00 видеокадр)
Время предзагрузки промежутка : 504 мс.
Библиотека кодирования : LAME3.99r
Настройки программы : -m s -V 4 -q 2 -lowpass 17 -b 128

Скриншот c названием фильма

Скриншоты

If your ratio falls below 0.3, you will not be able to download Torrents! More about the rating.

[erzsebet.pl].t419.torrent
Torrent: Registered [ 2017-12-02 16:42 ] · 64ED056B6905480165E5CD7790847A7A8505136A

Download .torrent

Download

15 KB

Status: checked
Completed: 16 times
Size: 1.45 GB
terms.php
[Profile] [PM]
Display posts:    
Reply to topic

Current time is: 24-Jan 14:31

All times are UTC ± 0



You cannot post new topics in this forum
You cannot reply to topics in this forum
You cannot edit your posts in this forum
You cannot delete your posts in this forum
You cannot vote in polls in this forum
You cannot attach files in this forum
You can download files in this forum