Кабаре / Cabaret (Боб Фосс / Bob Fosse) [1972, США, драма, мюзикл, DVDRip] DVO (Selena International) + Original Eng

Reply to topic
DL-List and Torrent activity
Size:  1.46 GB   |    Registered:  3 years 1 month   |    Completed:  16 times

Seeder not seen: Never

 
   
 
 
Author Message

erzsebet.org ®

Longevity: 3 years 1 month

Posts: 47596

Post 02-Dec-2017 16:41

[Quote]

Кабаре / Cabaret«Life is a Cabaret» Страна: США
Жанр: драма, мюзикл
Год выпуска: 1972
Продолжительность: 01:58:27
Перевод: Профессиональный (двухголосый закадровый) - «Selena International»
Субтитры: нет
Оригинальная аудиодорожка: английская
Режиссер: Боб Фосс / Bob Fosse
В ролях: Лайза Миннелли, Майкл Йорк, Хельмут Грим, Джоэл Грей, Фриц Веппер, Мариза Беренсон, Элизабет Нойман-Виртель, Хелен Вита, Сигрид фон Рихтхофен, Герд Весперманн.
Описание: Американская певица Салли Боулз развлекает Берлин эпохи Веймарской республики на подмостках кабаре «Kit-Kat club». За дверями клуба — политический и экономический хаос, восхождение к власти нацистов, еврейские погромы. Внутри — вечный праздник. Перемены в относительно беззаботную жизнь Салли вносят встреча с Брайаном — англичанином, подрабатывающим уроками, которые он дает богатой молодой еврейке, и Максом — богатым немецким плейбоем.

Доп. информация:
Исходник - DVD9 от Kammer001, собранный в свою очередь на основе немецкого диска от ув. colt451
Особая благодарность - за перевод кинокомпании "Селена Интернешнл" - адресуется ilgiz01
DVDRip и сведение звука - Arle-kino

Качество видео: DVDRip
Формат видео: AVI
Видео: 704x528 (1.33:1), 25 fps, XviD build 50 ~1461 kbps avg, 0.16 bit/pixel
Аудио 1: 48 kHz, AC3 Dolby Digital, 1/0 (C) ch, ~96 kbps - Rus
Аудио 2: 48 kHz, AC3 Dolby Digital, 2/0 (L,R) ch, ~192 kbps - Eng

MediaInfo

General
Complete name : D:\Public\Cabaret - 1972 - DVDRip (Rus, Eng).avi
Format : AVI
Format/Info : Audio Video Interleave
File size : 1.46 GiB
Duration : 1h 58mn
Overall bit rate : 1 765 Kbps
Writing application : VirtualDubMod 1.5.10.2 (build 2540/release)
Writing library : VirtualDubMod build 2540/release
Video
ID : 0
Format : MPEG-4 Visual
Format profile : Advanced [email protected]
Format settings, BVOP : 1
Format settings, QPel : No
Format settings, GMC : No warppoints
Format settings, Matrix : Default (MPEG)
Codec ID : XVID
Codec ID/Hint : XviD
Duration : 1h 58mn
Bit rate : 1 463 Kbps
Width : 704 pixels
Height : 528 pixels
Display aspect ratio : 4:3
Frame rate : 25.000 fps
Color space : YUV
Chroma subsampling : 4:2:0
Bit depth : 8 bits
Scan type : Progressive
Compression mode : Lossy
Bits/(Pixel*Frame) : 0.157
Stream size : 1.21 GiB (83%)
Writing library : XviD 1.2.1 (UTC 2008-12-04)
Audio #1
ID : 1
Format : AC-3
Format/Info : Audio Coding 3
Mode extension : CM (complete main)
Codec ID : 2000
Duration : 1h 58mn
Bit rate mode : Constant
Bit rate : 96.0 Kbps
Channel(s) : 1 channel
Channel positions : Front: C
Sampling rate : 48.0 KHz
Bit depth : 16 bits
Compression mode : Lossy
Stream size : 81.3 MiB (5%)
Alignment : Split accross interleaves
Interleave, duration : 40 ms (1.00 video frame)
Interleave, preload duration : 500 ms
Title : Rus
Audio #2
ID : 2
Format : AC-3
Format/Info : Audio Coding 3
Mode extension : CM (complete main)
Codec ID : 2000
Duration : 1h 58mn
Bit rate mode : Constant
Bit rate : 192 Kbps
Channel(s) : 2 channels
Channel positions : Front: L R
Sampling rate : 48.0 KHz
Bit depth : 16 bits
Compression mode : Lossy
Stream size : 163 MiB (11%)
Alignment : Split accross interleaves
Interleave, duration : 40 ms (1.00 video frame)
Interleave, preload duration : 500 ms
Title : Eng

Скриншот c названием фильма

Скриншоты

If your ratio falls below 0.3, you will not be able to download Torrents! More about the rating.

[erzsebet.pl].t423.torrent
Torrent: Registered [ 2017-12-02 16:42 ] · 9FA39048D06E9116104EA78D2EB504EFBC5EEB00

Download .torrent

Download

15 KB

Status: checked
Completed: 16 times
Size: 1.46 GB
terms.php
[Profile] [PM]
Display posts:    
Reply to topic

Current time is: 24-Jan 00:00

All times are UTC ± 0



You cannot post new topics in this forum
You cannot reply to topics in this forum
You cannot edit your posts in this forum
You cannot delete your posts in this forum
You cannot vote in polls in this forum
You cannot attach files in this forum
You can download files in this forum