Мальчик, который рассказывал об оборотне / The Boy Who Cried Werewolf (Нэйтан Юран / Nathan Juran) [1973, США, ужасы, DVDRip] VO (Максим Логинофф) + Original Eng

Reply to topic
DL-List and Torrent activity
Size:  1.43 GB   |    Registered:  3 years 1 month   |    Completed:  16 times

Seeder not seen: Never

 
   
 
 
Author Message

erzsebet.org ®

Longevity: 3 years 1 month

Posts: 47596

Post 02-Dec-2017 16:41

[Quote]

Мальчик, который рассказывал об оборотне / The Boy Who Cried Werewolf
Страна: США
Жанр: ужасы
Год выпуска: 1973
Продолжительность: 01:33:04
Перевод: Одноголосый закадровый Максим Логинофф
Субтитры: нет
Оригинальная аудиодорожка: английский
Режиссер: Нэйтан Юран / Nathan Juran
В ролях: Кервин Мэтьюз, Элейн Деври, Скотт Сили, Роберт Дж. Уилки
Описание: Ритчи отправляется вместе со своим отцом в горы на уик-энд. Неожиданно на них нападает волк. Отцу удается сбросить животное со скалы. Мальчик видит, что волк напарывается на дорожный знак и превращается в человека. Ритчи, заметивший, что волку удалось укусить отца, предполагает, что это мог быть оборотень. Отец поднимает Ритчи на смех. Но когда они возвращаются домой, полнолунными ночами отец начинает действительно превращаться в оборотня…
Сэмпл: http://multi-up.com/1163741
IMDB: http://www.imdb.com/title/tt0069820/
Качество видео: DVDRip
Формат видео: AVI
Видео: 704x384 (1.83:1), 23.976 fps, XviD build 67 ~1804 kbps avg, 0.28 bit/pixel
Аудио: 48 kHz, MPEG Layer 3, 2 ch, ~192.00 kbps avg (rus)
Аудио 2: 48 kHz, MPEG Layer 3, 2 ch, ~192.00 kbps avg (eng)

MediaInfo

Общее
Полное имя : D:\BHCW\The.Boy.Who.Cried.Werewolf.1973.1080p.BluRay.H264.AAC-RARBG\Malchik_kotoriy_rasskazival_ob_oborotne_[erzsebet.org].avi
Формат : AVI
Формат/Информация : Audio Video Interleave
Размер файла : 1,43 Гбайт
Продолжительность : 1 ч. 33 м.
Общий поток : 2203 Кбит/сек
Программа кодирования : VirtualDubMod 1.5.10.2 (build 2540/release)
Библиотека кодирования : VirtualDubMod build 2540/release
Видео
Идентификатор : 0
Формат : MPEG-4 Visual
Профиль формата : Advanced [email protected]
Параметр BVOP формата : 2
Параметр QPel формата : Нет
Параметр GMC формата : Без точки перехода
Параметр матрицы формата : Default (H.263)
Идентификатор кодека : XVID
Идентификатор кодека/Подсказка : XviD
Продолжительность : 1 ч. 33 м.
Битрейт : 1805 Кбит/сек
Ширина : 704 пикселя
Высота : 384 пикселя
Соотношение сторон : 1,85:1
Частота кадров : 23,976 (24000/1001) кадра/сек
Цветовое пространство : YUV
Субдискретизация насыщенности : 4:2:0
Битовая глубина : 8 бит
Тип развёртки : Прогрессивная
Метод сжатия : С потерями
Бит/(Пиксели*Кадры) : 0.278
Размер потока : 1,17 Гбайт (82%)
Библиотека кодирования : XviD 67
Аудио #1
Идентификатор : 1
Формат : MPEG Audio
Версия формата : Version 1
Профиль формата : Layer 3
Режим : Joint stereo
Расширение режима : MS Stereo
Идентификатор кодека : 55
Идентификатор кодека/Подсказка : MP3
Продолжительность : 1 ч. 33 м.
Вид битрейта : Постоянный
Битрейт : 192 Кбит/сек
Каналы : 2 канала
Частота : 48,0 КГц
Метод сжатия : С потерями
Размер потока : 128 Мбайт (9%)
Выравнивание : Соединение по промежуткам
Продолжительность промежутка : 42 мс. (1,00 видеокадр)
Время предзагрузки промежутка : 504 мс.
Библиотека кодирования : LAME3.93
Настройки программы : -m j -V 4 -q 2 -lowpass 19.3 -b 192
Аудио #2
Идентификатор : 2
Формат : MPEG Audio
Версия формата : Version 1
Профиль формата : Layer 3
Режим : Joint stereo
Расширение режима : MS Stereo
Идентификатор кодека : 55
Идентификатор кодека/Подсказка : MP3
Продолжительность : 1 ч. 33 м.
Вид битрейта : Постоянный
Битрейт : 192 Кбит/сек
Каналы : 2 канала
Частота : 48,0 КГц
Метод сжатия : С потерями
Размер потока : 128 Мбайт (9%)
Выравнивание : Соединение по промежуткам
Продолжительность промежутка : 42 мс. (1,00 видеокадр)
Время предзагрузки промежутка : 504 мс.
Библиотека кодирования : LAME3.93
Настройки программы : -m j -V 4 -q 2 -lowpass 19.3 -b 192

Скриншот c названием фильма

Скриншоты




If your ratio falls below 0.3, you will not be able to download Torrents! More about the rating.

[erzsebet.pl].t454.torrent
Torrent: Registered [ 2017-12-02 16:42 ] · 2057A68590BB0E96DBF26277E4DEBBC8964EDFCC

Download .torrent

Download

15 KB

Status: checked
Completed: 16 times
Size: 1.43 GB
terms.php
[Profile] [PM]
Display posts:    
Reply to topic

Current time is: 23-Jan 11:10

All times are UTC ± 0



You cannot post new topics in this forum
You cannot reply to topics in this forum
You cannot edit your posts in this forum
You cannot delete your posts in this forum
You cannot vote in polls in this forum
You cannot attach files in this forum
You can download files in this forum