Маленький Бобеш / Maly Bobes (Ян Валашек / Jan Valasek) [1962, Чехословакия, семейный, DVDRip] VO (Семен Ващенко) + Sub Rus + Original Cze

Reply to topic
DL-List and Torrent activity
Size:  1.18 GB   |    Registered:  3 years 1 month   |    Completed:  16 times

Seeder not seen: Never

 
   
 
 
Author Message

erzsebet.org ®

Longevity: 3 years 1 month

Posts: 47596

Post 02-Dec-2017 16:41

[Quote]

Маленький Бобеш / Maly Bobes
Страна: Чехословакия
Жанр: семейный
Год выпуска: 1962
Продолжительность: 01:14:35
Перевод: Одноголосый закадровый (Семен Ващенко)
Субтитры: русские (dido123)
Оригинальная аудиодорожка: чешский
Режиссер: Ян Валашек / Jan Valasek
В ролях: Йирка Лукеш / Jiri Lukes, Дана Медржицка / Dana Medricka, Радован Лукавский / Radovan Lukavsky, Станислав Нойман / Stanislav Neumann, Яна Затлоукалова / Jana Zatloukalova, Gustav Nezval, Марие Сикорова / Maria Sykorova, Йозеф Краус / Josef Kraus, Мирослав Коларжик / Miroslav Kolarik, Томаш Гадл / Tomas Hadl, Камила Нойбауэрова / Kamila Neubauerova
Описание: Фильм снят по книга известного чехословацкого писателя Йозефа Плевы "Маленький Бобеш", которая стала в Чехословакии одной из любимейших детских книг. Произведение знакомит с жизнью чешской детворы в начале XX века. С большой теплотой, с немалой долей юмора рассказывается о живом, любознательном мальчике по прозвищу Бобеш из простой трудовой семьи.
Доп. информация: http://www.imdb.com/title/tt0261816/
Перевод - dido123
Озвучание - Семен Ващенко
Работа со звуком - Diablo
Спасибо Berendey за перевод титров и косметику субтитров
За исходник спасибо Доброму человеку
Сэмпл: http://multi-up.com/1163676
Качество видео: DVDRip
Формат видео: AVI
Видео: XviD, 720x544 (4:3), 25.000 fps, 1871 kbps
Аудио: AC3, 48000 Hz, 2 ch, 192 kbps (русский)
Аудио 2: AC3, 48000 Hz, 2 ch, 192 kbps (чешский)
Формат субтитров: softsub (SRT)

MediaInfo

General
Complete name : F:\Рутрекер\Маленький Бобеш\Maly Bobes (1962).avi
Format : AVI
Format/Info : Audio Video Interleave
File size : 1.18 GiB
Duration : 1h 14mn
Overall bit rate : 2 269 Kbps
Writing application : VirtualDubMod 1.5.10.2 (build 2542/release)
Writing library : VirtualDubMod build 2542/release
Video
ID : 0
Format : MPEG-4 Visual
Format profile : Advanced [email protected]
Format settings, BVOP : 2
Format settings, QPel : No
Format settings, GMC : No warppoints
Format settings, Matrix : Default (H.263)
Codec ID : XVID
Codec ID/Hint : XviD
Duration : 1h 14mn
Bit rate : 1 871 Kbps
Width : 720 pixels
Height : 544 pixels
Display aspect ratio : 4:3
Frame rate : 25.000 fps
Color space : YUV
Chroma subsampling : 4:2:0
Bit depth : 8 bits
Scan type : Progressive
Compression mode : Lossy
Bits/(Pixel*Frame) : 0.191
Stream size : 998 MiB (82%)
Writing library : XviD 1.2.1 (UTC 2008-12-04)
Audio #1
ID : 1
Format : AC-3
Format/Info : Audio Coding 3
Mode extension : CM (complete main)
Format settings, Endianness : Big
Codec ID : 2000
Duration : 1h 14mn
Bit rate mode : Constant
Bit rate : 192 Kbps
Channel(s) : 2 channels
Channel positions : Front: L R
Sampling rate : 48.0 KHz
Bit depth : 16 bits
Compression mode : Lossy
Stream size : 102 MiB (8%)
Alignment : Split accross interleaves
Interleave, duration : 40 ms (1.00 video frame)
Interleave, preload duration : 500 ms
Audio #2
ID : 2
Format : AC-3
Format/Info : Audio Coding 3
Mode extension : CM (complete main)
Format settings, Endianness : Big
Codec ID : 2000
Duration : 1h 14mn
Bit rate mode : Constant
Bit rate : 192 Kbps
Channel(s) : 2 channels
Channel positions : Front: L R
Sampling rate : 48.0 KHz
Bit depth : 16 bits
Compression mode : Lossy
Stream size : 102 MiB (8%)
Alignment : Split accross interleaves
Interleave, duration : 40 ms (1.00 video frame)
Interleave, preload duration : 500 ms

Скриншот c названием фильма

If your ratio falls below 0.3, you will not be able to download Torrents! More about the rating.

[erzsebet.pl].t458.torrent
Torrent: Registered [ 2017-12-02 16:42 ] · 2EC252FE259BA366DB74FF479F20D1ED5F7A7F5A

Download .torrent

Download

12 KB

Status: checked
Completed: 16 times
Size: 1.18 GB
terms.php
[Profile] [PM]
Display posts:    
Reply to topic

Current time is: 24-Jan 00:09

All times are UTC ± 0



You cannot post new topics in this forum
You cannot reply to topics in this forum
You cannot edit your posts in this forum
You cannot delete your posts in this forum
You cannot vote in polls in this forum
You cannot attach files in this forum
You can download files in this forum