Качели любви (Тохтар Карсакбаев) [2012, Казахстан, драма, DVB] Original Rus

Reply to topic
DL-List and Torrent activity
Size:  1.67 GB   |    Registered:  3 years 1 month   |    Completed:  16 times

Seeder not seen: Never

 
   
 
 
Author Message

erzsebet.org ®

Longevity: 3 years 1 month

Posts: 47596

Post 02-Dec-2017 15:57

[Quote]

Качели любви Страна: Казахстан
Жанр: драма
Продолжительность: 01:39:44
Год выпуска: 2012
Перевод: не требуется
Субтитры: отсутствуют-Режиссёр: Тохтар Карсакбаев
В ролях: Адиль Талипов, Аружан Джазильбекова, Динара Тлендиева, Орынгали Ахметов, Марат Тойшыбеков, Нурлан Сарсеков, Евгений Шамрай, Аккенже Алимжан, Айжан Ныгыметова, Сакиш Павлова.-О фильме: Молодой человек Марат возвращается домой из армии после двух лет службы. За это время его взгляды на жизнь изменились, неизменными остались только чувства к девушке Анель, которую он сильно любил.-
Семпл: http://sendfile.su/1380855-Качество: DVB [Ел Арна] (эфир 27.11.2017)
Формат: TS
Видео: 720x576 (16:9) @ 1047x576, 25 fps, ~2088 kbps, 0.201 bit/pixel
Аудио: [RUS] 48 kHz, MP2, 2 ch, 192 kbps

Mediainfo

Общее
Идентификатор : 1 (0x1)
Полное имя : F:\Качели любви (2012) [Ел Арна].ts
Формат : MPEG-TS
Размер файла : 1,67 Гбайт
Продолжительность : 1 ч. 39 м.
Режим общего битрейта : Переменный
Общий поток : 2400 Кбит/сек
Видео
Идентификатор : 67 (0x43)
Идентификатор меню : 1 (0x1)
Формат : AVC
Формат/Информация : Advanced Video Codec
Профиль формата : [email protected]
Параметр CABAC формата : Да
Параметр RefFrames формата : 3 кадра
Параметр GOP формата : M=4, N=32
Идентификатор кодека : 27
Продолжительность : 1 ч. 39 м.
Битрейт : 2088 Кбит/сек
Ширина : 720 пикселей
Высота : 576 пикселей
Соотношение сторон : 16:9
Частота кадров : 25,000 кадров/сек
Стандарт вещания : Component
Цветовое пространство : YUV
Субдискретизация насыщенности : 4:2:0
Битовая глубина : 8 бит
Тип развёртки : Чересстрочная
Метод сохранения типа развёртки : Раздельные поля
Порядок развёртки : Верхнее поле первое
Бит/(Пиксели*Кадры) : 0.201
Размер потока : 1,45 Гбайт (87%)
Цветовой диапазон : Limited
Основные цвета : BT.601 PAL
Характеристики трансфера : BT.470 System B, BT.470 System G
Коэффициенты матрицы : BT.470 System B, BT.470 System G
Аудио
Идентификатор : 68 (0x44)
Идентификатор меню : 1 (0x1)
Формат : MPEG Audio
Версия формата : Version 1
Профиль формата : Layer 2
Идентификатор кодека : 3
Продолжительность : 1 ч. 39 м.
Вид битрейта : Постоянный
Битрейт : 192 Кбит/сек
Каналы : 2 канала
Частота : 48,0 КГц
Метод сжатия : С потерями
Размер потока : 137 Мбайт (8%)
Язык : English

Скриншоты

If your ratio falls below 0.3, you will not be able to download Torrents! More about the rating.

[erzsebet.pl].t46.torrent
Torrent: Registered [ 2017-12-02 15:58 ] · C56B364AD10A0E66BB227A3B5412EFACF79E57D4

Download .torrent

Download

17 KB

Status: checked
Completed: 16 times
Size: 1.67 GB
terms.php
[Profile] [PM]
Display posts:    
Reply to topic

Current time is: 28-Jan 08:47

All times are UTC ± 0



You cannot post new topics in this forum
You cannot reply to topics in this forum
You cannot edit your posts in this forum
You cannot delete your posts in this forum
You cannot vote in polls in this forum
You cannot attach files in this forum
You can download files in this forum