Клипер янки / The Yankee Clipper (Руперт Джулиан / Rupert Julian) [1927, США, Драма, приключения, DVDRip] (nigelliri) + Sub Rus

Reply to topic
DL-List and Torrent activity
Size:  1.37 GB   |    Registered:  3 years 1 month   |    Completed:  16 times

Seeder not seen: Never

 
   
 
 
Author Message

erzsebet.org ®

Longevity: 3 years 1 month

Posts: 47596

Post 02-Dec-2017 16:40

[Quote]

Клипер янки / The Yankee Clipper
Страна: США
Жанр: Драма, приключения
Год выпуска: 1927
Продолжительность: 01:26:46
Перевод: Субтитры nigelliri
Субтитры: русские
Режиссер: Руперт Джулиан / Rupert Julian
В ролях: Уильям Бойд, Элинор Фэйр, Фрэнк Когхлан мл., Джон Мильян, Уолтер Лонг, Луис Пэйн, Барр МакИнтош, Джордж Ови, Зак Уильямс, Уильям Блэйсделл
Описание: Чтобы заполучить желанный контракт на торговлю чаем, американский и английский корабли стремятся опередить друг друга в плавании из Китая в американский порт Бостон. Кроме того капитаны кораблей заключают между собой пари, по условиям которого, проигравшее судно переходит в собственность капитана выигравшего судна. И наконец, для молодого американского капитана на карту поставлена еще и его любовь...
Сэмпл: http://multi-up.com/1163205
Качество видео: DVDRip
Формат видео: AVI
Видео: XVID; 640x480; 4:3; 23.976 FPS; 2121 kb/s
Аудио: MP3; 44.1 kHz; 128 kb/s; 2 channels
Формат субтитров: softsub (SRT)

MediaInfo

General
Format : AVI
Format/Info : Audio Video Interleave
File size : 1.37 GiB
Duration : 1 h 26 min
Overall bit rate : 2 258 kb/s
Writing library : VirtualDub build 34703/release
Video
ID : 0
Format : MPEG-4 Visual
Format profile : [email protected]
Format settings, BVOP : No
Format settings, QPel : No
Format settings, GMC : No warppoints
Format settings, Matrix : Default (H.263)
Codec ID : XVID
Codec ID/Hint : XviD
Duration : 1 h 26 min
Bit rate : 2 121 kb/s
Width : 640 pixels
Height : 480 pixels
Display aspect ratio : 4:3
Frame rate : 23.976 (24000/1001) FPS
Color space : YUV
Chroma subsampling : 4:2:0
Bit depth : 8 bits
Scan type : Progressive
Compression mode : Lossy
Bits/(Pixel*Frame) : 0.288
Stream size : 1.29 GiB (94%)
Writing library : XviD 73
Audio
ID : 1
Format : MPEG Audio
Format version : Version 1
Format profile : Layer 3
Mode : Joint stereo
Codec ID : 55
Codec ID/Hint : MP3
Duration : 1 h 26 min
Bit rate mode : Constant
Bit rate : 128 kb/s
Channel(s) : 2 channels
Sampling rate : 44.1 kHz
Compression mode : Lossy
Stream size : 79.3 MiB (6%)
Alignment : Split accross interleaves
Interleave, duration : 42 ms (1.00 video frame)
Interleave, preload duration : 501 ms

Скриншот c названием фильма

Скриншоты








Фрагмент субтитров

19
00:03:20,047 --> 00:03:25,447
Лорд Энтони Хантингтон - главный
кораблестроитель Англии. (Луис Пэйн)
20
00:03:36,598 --> 00:03:41,198
"Лорд Хантингтон, мы понимаем, что
Америка преисполнена решимости
21
00:03:41,398 --> 00:03:45,148
покончить с нашим доминированием
в торговле чаем
22
00:03:45,348 --> 00:03:48,848
и начать торговать через
собственные порты..."
23
00:03:56,178 --> 00:04:00,428
"Их корабли не так быстроходны,
как наши, ваше Величество.
24
00:04:00,628 --> 00:04:04,878
Мой новый корабль оставит любое
судно янки далеко позади."
25
00:04:49,501 --> 00:04:55,454
Леди Джоселин - дочь лорда
Хантингтона. (Элинор Фэр)
26
00:05:14,391 --> 00:05:19,391
"Лорд Хантингтон,... в этом
товарищеском соревновании с Америкой
27
00:05:19,591 --> 00:05:22,591
мы не должны быть побеждены."
28
00:05:43,034 --> 00:05:49,034
АМЕРИКА
29
00:05:50,989 --> 00:05:53,039
Комната в Белом доме.
30
00:06:16,967 --> 00:06:21,167
Хэл Уинслоу, сын Бостонского
кораблестроителя,
31
00:06:21,367 --> 00:06:25,867
который собирается бросить вызов
хваленой английской быстроходности
32
00:06:26,067 --> 00:06:30,817
новым и смелым типом корабля.
(Уильям Бойд)
33
00:06:34,832 --> 00:06:39,832
"Это - мой мальчик Хэл - он будет
командовать моим "Клипером янки"
34
00:06:40,032 --> 00:06:43,432
в его первом рейсе в Китай."
35
00:07:17,276 --> 00:07:19,576
"Изумительное судно, сэр,
36
00:07:19,776 --> 00:07:23,076
возможно, оно является
предвестником
37
00:07:23,276 --> 00:07:26,926
появления сотен других кораблей
этого типа!"
38
00:07:34,706 --> 00:07:40,856
"Американский морской престиж
теперь в твоих руках, мой мальчик.
39
00:07:41,056 --> 00:07:45,306
Бог подарит тебе победу!"

If your ratio falls below 0.3, you will not be able to download Torrents! More about the rating.

[erzsebet.pl].t474.torrent
Torrent: Registered [ 2017-12-02 16:42 ] · B384ABA97679384E13374B2440AD987EC44F85E5

Download .torrent

Download

14 KB

Status: checked
Completed: 16 times
Size: 1.37 GB
terms.php
[Profile] [PM]
Display posts:    
Reply to topic

Current time is: 26-Jan 08:28

All times are UTC ± 0



You cannot post new topics in this forum
You cannot reply to topics in this forum
You cannot edit your posts in this forum
You cannot delete your posts in this forum
You cannot vote in polls in this forum
You cannot attach files in this forum
You can download files in this forum