Брак по-итальянски / Matrimonio all'italiana (Витторио Де Сика / Vittorio De Sica) [1964, Италия, Франция, драма, мелодрама, комедия, Telesync > DVD] [Советская прокатная копия / Повторный прокат] Dub (Союзмультфильм)

Reply to topic
DL-List and Torrent activity
Size:  4.04 GB   |    Registered:  3 years 1 month   |    Completed:  16 times

Seeder not seen: Never

 
   
 
 
Author Message

erzsebet.org ®

Longevity: 3 years 1 month

Posts: 47596

Post 02-Dec-2017 16:40

[Quote]

Брак по-итальянски / Matrimonio all'italiana [Советская прокатная копия / Повторный прокат]- Страна: Италия, Франция
Жанр: драма, мелодрама, комедия
Год выпуска: 1964
Продолжительность: 01:38:59-Перевод: Профессиональный (дублированный) - Киностудия "Союзмультфильм"
Субтитры: нет-Режиссер: Витторио Де Сика / Vittorio De Sica
В ролях: Софи Лорен, Марчелло Мастроянни, Альдо Пульизи, Текла Скарано, Марилу Толо, Джанни Ридольфи, Пиа Линдстрем, Дженерозо Кортини...- | Релиз: -Описание: В Неаполе, во время Второй мировой войны, бизнесмен Доменико Сориано встречает в борделе семнадцатилетнюю шлюху Филумену Мартурано. Два года спустя, после войны, они случайно встречаются вновь и заводят длительные и запутанные отношения. В течение двадцати двух лет Филумена - его любовница и управляющая его магазинами в Неаполе. Чтобы крепче привязать к себе Доменико, Филумена говорит ему, что у нее есть три сына, и один из них - от него, но не раскрывает, какой именно...-Семпл: http://sendfile.su/1351902-Тип релиза: Telesync
Контейнер: DVD-Video
Видео: 720x576 (4:3) @ 768x576, 25.000 fps, MPEG-2 Video, ~5548 Kbps, 0.535 bits/pixel
Аудио: Русский, 48.0 KHz, AC3, 2 ch, 256 Kbps

DVDInfo

Title: Брак по-итальянски 1964 Dub Союзмультфильм [Повторный прокат]
Size: 4.04 Gb ( 4 234 974,00 KBytes ) - DVD-5
Enabled regions: 1, 2, 3, 4, 5, 6, 7, 8
VTS_01 :
Play Length: 01:38:59
Video: PAL 4:3 (720x576) VBR
Audio:
Russian, AC3, 2/0 (L,R) ch, 256 kbps, Delay 0 mSec

MediaInfo

General
Complete name : \Брак по-итальянски 1964 Dub Союзмультфильм [Повторный прокат]\VIDEO_TS\VTS_01_1.VOB
Format : MPEG-PS
File size : 1 024 MiB
Duration : 24 min 10 s
Overall bit rate mode : Variable
Overall bit rate : 5 922 kb/s
Video
ID : 224 (0xE0)
Format : MPEG Video
Format version : Version 2
Format profile : [email protected]
Format settings, BVOP : Yes
Format settings, Matrix : Default
Format settings, GOP : Variable
Format settings, picture structure : Frame
Duration : 24 min 10 s
Bit rate mode : Variable
Bit rate : 5 548 kb/s
Maximum bit rate : 9 400 kb/s
Width : 720 pixels
Height : 576 pixels
Display aspect ratio : 4:3
Frame rate : 25.000 FPS
Standard : PAL
Color space : YUV
Chroma subsampling : 4:2:0
Bit depth : 8 bits
Scan type : Interlaced
Scan order : Top Field First
Compression mode : Lossy
Bits/(Pixel*Frame) : 0.535
Time code of first frame : 00:00:00:00
Time code source : Group of pictures header
GOP, Open/Closed : Closed
Stream size : 959 MiB (94%)
Color primaries : BT.601 PAL
Transfer characteristics : BT.470 System B, BT.470 System G
Matrix coefficients : BT.601
Audio
ID : 189 (0xBD)-128 (0x80)
Format : AC-3
Format/Info : Audio Coding 3
Format settings, Endianness : Big
Muxing mode : DVD-Video
Duration : 24 min 10 s
Bit rate mode : Constant
Bit rate : 256 kb/s
Channel(s) : 2 channels
Channel positions : Front: L R
Sampling rate : 48.0 kHz
Frame rate : 31.250 FPS (1536 SPF)
Bit depth : 16 bits
Compression mode : Lossy
Stream size : 44.3 MiB (4%)
Service kind : Complete Main
Menu

If your ratio falls below 0.3, you will not be able to download Torrents! More about the rating.

[erzsebet.pl].t476.torrent
Torrent: Registered [ 2017-12-02 16:42 ] · 01404E55C786079AFD614CE49045590E46A51015

Download .torrent

Download

21 KB

Status: checked
Completed: 16 times
Size: 4.04 GB
terms.php
[Profile] [PM]
Display posts:    
Reply to topic

Current time is: 22-Jan 23:01

All times are UTC ± 0



You cannot post new topics in this forum
You cannot reply to topics in this forum
You cannot edit your posts in this forum
You cannot delete your posts in this forum
You cannot vote in polls in this forum
You cannot attach files in this forum
You can download files in this forum