Развод по-итальянски / Divorce Italian Style (Пьетро Джерми / Pietro Germi) [1961, Италия, драма, мелодрама, комедия, BDRip] DVO (Культура) + MVO (Film Prestige) + Original Ita

Reply to topic
DL-List and Torrent activity
Size:  2.17 GB   |    Registered:  3 years 1 month   |    Completed:  16 times

Seeder not seen: Never

 
   
 
 
Author Message

erzsebet.org ®

Longevity: 3 years 1 month

Posts: 47596

Post 02-Dec-2017 16:40

[Quote]

Развод по-итальянски / Divorce Italian Style
Страна: Италия
Жанр: драма, мелодрама, комедия
Год выпуска: 1961
Продолжительность: 01:44:47-Перевод 1: Профессиональный (двухголосый закадровый) Культура
Перевод 2: Профессиональный (многоголосый закадровый) Film Prestige
Субтитры: нет
Оригинальная аудиодорожка: итальянский
Режиссер: Пьетро Джерми / Pietro Germi
В ролях: Марчелло Мастроянни, Даниэла Рокка, Стефания Сандрелли, Леопольдо Триесте, Одоардо Спадаро, Маргерита Джирелли, Анджела Кардиле, Ландо Будзанка, Пьетро Торди, Уго Торренте
Описание: Фердинандо приличный семьянин, ему скоро 40 лет, их брак с Росалией длится уже 12 лет, и вроде бы всё идет своим чередом, но вот беда, он влюбляется в свою юную кузину Анжелу, и девушка отвечает ему взаимностью. Фердинандо решает расстаться с ненавистной - глупой женой, чтобы быть всегда вместе с Анжелой, но как это сделать? Развод в Италии практически невозможен. «Проще убить», - решает он и, разработав коварный план, герой начинает действовать.
-Сэмпл: https://yadi.sk/i/OOHQ1yKc3LWk8h-За запись озвучки Культуры спасибо smit009.
За исходник видео - teko.-Качество видео: BDRip
Формат видео: AVI
Видео: 720x384 (1.88:1), 24 fps, XviD MPEG-4 ~2133 kbps avg, 0.32 bit/pixel
Аудио 1: 48 kHz, AC3 Dolby Digital, 2/0 (L,R) ch, ~192 kbps - DVO |Культура|
Аудио 2: 48 kHz, AC3 Dolby Digital, 2/0 (L,R) ch, ~192 kbps - MVO |Film Prestige|
Аудио 3: 48 kHz, AC3 Dolby Digital, 3/2 (L,C,R,l,r) + LFE ch, ~448 kbps
Формат субтитров: softsub (SRT)

MediaInfo

E:\Sem\Desktop\Divorzio all'italiana, BDRip. Kultura..avi
General
Complete name : E:\Sem\Desktop\Divorzio all'italiana, BDRip. Kultura..avi
Format : AVI
Format/Info : Audio Video Interleave
File size : 2.17 GiB
Duration : 1h 44mn
Overall bit rate : 2 967 Kbps
Writing application : VirtualDubMod 1.5.10.2 (build 2540/release)
Writing library : VirtualDubMod build 2540/release
Video #0
ID : 0
Format : MPEG-4 Visual
Format profile : Advanced [email protected]
Format settings, BVOP : 2
Format settings, QPel : No
Format settings, GMC : No warppoints
Format settings, Matrix : Custom
Codec ID : XVID
Codec ID/Hint : XviD
Duration : 1h 44mn
Bit rate : 2 116 Kbps
Width : 720 pixels
Height : 384 pixels
Display aspect ratio : 1.85:1
Frame rate : 24.000 fps
Color space : YUV
Chroma subsampling : 4:2:0
Bit depth : 8 bits
Scan type : Progressive
Compression mode : Lossy
Bits/(Pixel*Frame) : 0.319
Stream size : 1.55 GiB (71%)
Writing library : XviD 73
Audio #1
ID : 1
Format : AC-3
Format/Info : Audio Coding 3
Mode extension : CM (complete main)
Format settings, Endianness : Big
Codec ID : 2000
Duration : 1h 44mn
Bit rate mode : Constant
Bit rate : 192 Kbps
Channel(s) : 2 channels
Channel positions : Front: L R
Sampling rate : 48.0 KHz
Bit depth : 16 bits
Compression mode : Lossy
Stream size : 144 MiB (6%)
Alignment : Split accross interleaves
Interleave, duration : 42 ms (1.00 video frame)
Interleave, preload duration : 500 ms
Audio #2
ID : 2
Format : AC-3
Format/Info : Audio Coding 3
Mode extension : CM (complete main)
Format settings, Endianness : Big
Codec ID : 2000
Duration : 1h 44mn
Bit rate mode : Constant
Bit rate : 192 Kbps
Channel(s) : 2 channels
Channel positions : Front: L R
Sampling rate : 48.0 KHz
Bit depth : 16 bits
Compression mode : Lossy
Stream size : 144 MiB (6%)
Alignment : Split accross interleaves
Interleave, duration : 42 ms (1.00 video frame)
Interleave, preload duration : 500 ms
Audio #3
ID : 3
Format : AC-3
Format/Info : Audio Coding 3
Mode extension : CM (complete main)
Format settings, Endianness : Big
Codec ID : 2000
Duration : 1h 44mn
Bit rate mode : Constant
Bit rate : 448 Kbps
Channel(s) : 6 channels
Channel positions : Front: L C R, Side: L R, LFE
Sampling rate : 48.0 KHz
Bit depth : 16 bits
Compression mode : Lossy
Stream size : 336 MiB (15%)
Alignment : Split accross interleaves
Interleave, duration : 42 ms (1.00 video frame)
Interleave, preload duration : 500 ms

Скриншоты

If your ratio falls below 0.3, you will not be able to download Torrents! More about the rating.

[erzsebet.pl].t480.torrent
Torrent: Registered [ 2017-12-02 16:42 ] · 93885BCEC74891A906836F9893413697E35A0001

Download .torrent

Download

11 KB

Status: checked
Completed: 16 times
Size: 2.17 GB
terms.php
[Profile] [PM]
Display posts:    
Reply to topic

Current time is: 24-Jan 15:45

All times are UTC ± 0



You cannot post new topics in this forum
You cannot reply to topics in this forum
You cannot edit your posts in this forum
You cannot delete your posts in this forum
You cannot vote in polls in this forum
You cannot attach files in this forum
You can download files in this forum