Зловещие мертвецы / The Evil Dead (Сэм Рэйми / Sam Raimi) [1981, США, ужасы, BDRip-AVC] MVO

DL-List and Torrent activity
Size:  2.19 GB   |    Registered:  2 years 10 months   |    Completed:  16 times
Seeders:  14  
 
   
 
 

Max Levien ®

Longevity:
2 years 10 months
Posts:
20374

[Quote] 

Зловещие мертвецы| The Evil Dead- Страна: США
Жанр: ужасы
Год выпуска: 1981
Продолжительность: 01:25:26-Перевод: Профессиональный (многоголосый закадровый)
Оригинальная аудиодорожка: отсутствует
Субтитры: отсутствуют-Режиссер: Сэм Рэйми / Sam Raimi-В ролях: Брюс Кэмпбелл, Эллен Сэндвайсс, Ричард Де Мэннинкор, Бетси Бейкер, Тереза Тилли, Филип А. Гиллис, Дороти Тейперт, Шерил Гаттридж, Барбара Кэри, Дэвид Хортон-Описание: Молодые люди снимают на выходные загородный дом. Находится он в непролазной глуши, выглядит мрачно, а кругом — ни души. Аренда стоит копейки, но не потому, что он того и гляди развалится…
Раньше здесь жил археолог, после которого в подвале остались различные мистические артефакты. Например, книга мертвых, предметы неизвестных магических культов и магнитофон с записью заклинания на непонятном языке. Ребята запись прослушали… С наступлением темноты им предстоит встретиться с духами, которых они разбудили!-Тип релиза: BDRip-AVC / BDRemux 1080p
Контейнер: MKV-Видео: MPEG-4 AVC, 1152x624 (1.85:1), 23.976 fps, ~3278 kbps, 0.190 bit/pixel
Аудио: Russian, Audio Coding 3, 48 kHz, DD 5.1 ch, CBR 384 kbps | многоголосый закадровый, Киномания-

MI

General
Unique ID : 180781116971451590284840338525794558846 (0x88012D394BA1DFAEB4F679523BBF637E)
Complete name : the.evil.dead.mkv
Format : Matroska
Format version : Version 2
File size : 2.19 GiB
Duration : 1h 25mn
Overall bit rate : 3 663 Kbps
Encoded date : UTC 2011-08-15 09:48:36
Writing application : mkvmerge v4.8.0 ('I Got The...') сборка от May 24 2011 03:12:58
Writing library : libebml v1.2.0 + libmatroska v1.1.0
Video
ID : 1
Format : AVC
Format/Info : Advanced Video Codec
Format profile : [email protected]
Format settings, CABAC : Yes
Format settings, ReFrames : 9 frames
Format settings, GOP : M=1, N=48
Codec ID : V_MPEG4/ISO/AVC
Duration : 1h 25mn
Bit rate : 3 278 Kbps
Width : 1 152 pixels
Height : 624 pixels
Display aspect ratio : 16:9
Frame rate : 23.976 fps
Color space : YUV
Chroma subsampling : 4:2:0
Bit depth : 8 bits
Scan type : Progressive
Bits/(Pixel*Frame) : 0.190
Stream size : 1.91 GiB (88%)
Title : The Evil Dead
Writing library : x264 core 115 r1995 c1e60b9
Encoding settings : cabac=1 / ref=9 / deblock=1:-1:-1 / analyse=0x3:0x113 / me=umh / subme=10 / psy=1 / psy_rd=1.00:0.15 / mixed_ref=1 / me_range=32 / chroma_me=1 / trellis=2 / 8x8dct=1 / cqm=0 / deadzone=21,11 / fast_pskip=0 / chroma_qp_offset=-3 / threads=2 / sliced_threads=0 / nr=0 / decimate=1 / interlaced=0 / bluray_compat=0 / constrained_intra=0 / bframes=9 / b_pyramid=2 / b_adapt=2 / b_bias=0 / direct=3 / weightb=1 / open_gop=0 / weightp=2 / keyint=250 / keyint_min=23 / scenecut=40 / intra_refresh=0 / rc_lookahead=40 / rc=2pass / mbtree=1 / bitrate=3278 / ratetol=1.0 / qcomp=0.70 / qpmin=10 / qpmax=51 / qpstep=4 / cplxblur=20.0 / qblur=0.5 / ip_ratio=1.40 / aq=2:1.00
Language : English
Audio
ID : 2
Format : AC-3
Format/Info : Audio Coding 3
Mode extension : CM (complete main)
Codec ID : A_AC3
Duration : 1h 25mn
Bit rate mode : Constant
Bit rate : 384 Kbps
Channel(s) : 6 channels
Channel positions : Front: L C R, Side: L R, LFE
Sampling rate : 48.0 KHz
Bit depth : 16 bits
Compression mode : Lossy
Stream size : 235 MiB (10%)
Title : MVO (Киномания)
Language : Russian

Скриншоты

If your ratio falls below 0.3, you will not be able to download Torrents! More about the rating.

[erzsebet.pl].t48858.torrent
Torrent: Registered   [ 2017-12-10 22:03 ]

Download .torrent

Download

11 KB

Status: checked
Completed: 16 times
Size: 2.19 GB
terms.php

#1

10-Dec-2017 22:02

[Profile]  [PM] 
Display posts:    

You cannot post new topics in this forum
You cannot reply to topics in this forum
You cannot edit your posts in this forum
You cannot delete your posts in this forum
You cannot vote in polls in this forum
You cannot attach files in this forum
You can download files in this forum
User agreement
For copyright holders
Advertise on this site

Скачайте на халяву через торрент на трекере erzsebet.pl

!ATTENTION!
The site does not give electronic versions of products, and is engaged only in a collecting and cataloguing of the references sent and published at a forum by our readers. If you are the legal owner of any submitted material and do not wish that the reference to it was in our catalogue, contact us and we shall immediately remove her. Files for an exchange on tracker are given by users of a site, and the administration does not bear the responsibility for their maintenance. The request to not fill in the files protected by copyrights, and also files of the illegal maintenance!