Гавана / Havana (Сидни Поллак / Sydney Pollack) [1990, США, драма, HDTVRip] MVO

DL-List and Torrent activity
Size:  778 MB   |    Registered:  2 years 10 months   |    Completed:  16 times
Seeders:  3  
 
   
 
 

Max Levien ®

Longevity:
2 years 10 months
Posts:
20374

[Quote] 

Гавана
Havana
Игрок, который не доверяет никому.
Женщина, которая рискует всем.
И страсть, которая охватывает их в одном из самых опасных городов мира.

* DVDRip на 2,19 Gb - с английскими субтитрами и оригинальной дорожкой
Год выпуска: 1990
Страна: США
Жанр: драма
Продолжительность: 02:18:25
Перевод: профессиональный многоголосый закадровый
Субтитры: нет
http://www.imdb.com/title/tt0099747/
Режиссер: Сидни Поллак /Sydney Pollack/
Сценарий: Джудит Раско /Judith Rascoe/, Дэвид Рэйфил /David Rayfiel/ по сюжету Джудит Раско /Judith Rascoe/
В главных ролях:
Роберт Редфорд /Robert Redford/, Лина Улин /Lena Olin/, Элан Аркин /Alan Arkin/, Рауль Хулиа /Raul Julia/, Томас Милиэн /Tomas Milian/, Марк Райделл /Mark Rydell/
Описание:
«Гавана» - безумно красивая история любви развернувшаяся на фоне революционных событий на Кубе. Профессиональный игрок в покер Джек Уэйл (Редфорд) пытается сорвать большой куш в Гаване 1958 года, городе, который называли "самым сексуальным городом в мире", но он неожиданно для себя влюбляется и становится участником событий, которые перевернули мир.
* Лина Олин в этом фильме полностью раскрыла свой потенциал.
* Мощный сюжет и восхитительная музыка Дэйва Грузина, удостоенная номинации на "Оскар".
минутный СЭМПЛ - 5,92 Mb
Качество: HDTVRip
Формат: AVI
Источник: HDTV 1080i
Видео кодек: XviD
Аудио кодек: MP3
Видео: 25 кадр/сек (512x288), битрейт 664 Кбит/сек, 0.180 бит/пиксель
Аудио: Russian (MP3, 2 ch)
Audio #1: MP3, 2 ch, 112 Kbps, 44,1 КГц - русский профессиональный многоголосый закадровый

скриншоты 5 штук






MediaInfo

Код:Format : AVI
Format/Info : Audio Video Interleave
File size : 778 MiB
Duration : 2h 18mn
Overall bit rate : 785 Kbps
Video
ID : 0
Format : MPEG-4 Visual
Format profile : [email protected]
Format settings, BVOP : Yes
Format settings, QPel : No
Format settings, GMC : No warppoints
Format settings, Matrix : Default (H.263)
Muxing mode : Packed bitstream
Codec ID : XVID
Codec ID/Hint : XviD
Duration : 2h 18mn
Bit rate : 664 Kbps
Width : 512 pixels
Height : 288 pixels
Display aspect ratio : 16:9
Frame rate : 25.000 fps
Resolution : 24 bits
Colorimetry : 4:2:0
Scan type : Progressive
Bits/(Pixel*Frame) : 0.180
Stream size : 657 MiB (85%)
Writing library : XviD 1.2.1 (UTC 2008-12-04)
Audio
ID : 1
Format : MPEG Audio
Format version : Version 1
Format profile : Layer 3
Codec ID : 55
Codec ID/Hint : MP3
Duration : 2h 18mn
Bit rate mode : Constant
Bit rate : 112 Kbps
Channel(s) : 2 channels
Sampling rate : 44.1 KHz
Resolution : 16 bits
Stream size : 111 MiB (14%)
Alignment : Split accross interleaves
Interleave, duration : 40 ms (1.00 video frame)
Interleave, preload duration : 500 ms

If your ratio falls below 0.3, you will not be able to download Torrents! More about the rating.

[erzsebet.pl].t48862.torrent
Torrent: Registered   [ 2017-12-10 22:03 ]

Download .torrent

Download

16 KB

Status: checked
Completed: 16 times
Size: 778 MB
terms.php

#1

10-Dec-2017 22:02

[Profile]  [PM] 
Display posts:    

You cannot post new topics in this forum
You cannot reply to topics in this forum
You cannot edit your posts in this forum
You cannot delete your posts in this forum
You cannot vote in polls in this forum
You cannot attach files in this forum
You can download files in this forum
User agreement
For copyright holders
Advertise on this site

Скачайте на халяву через торрент на трекере erzsebet.pl

!ATTENTION!
The site does not give electronic versions of products, and is engaged only in a collecting and cataloguing of the references sent and published at a forum by our readers. If you are the legal owner of any submitted material and do not wish that the reference to it was in our catalogue, contact us and we shall immediately remove her. Files for an exchange on tracker are given by users of a site, and the administration does not bear the responsibility for their maintenance. The request to not fill in the files protected by copyrights, and also files of the illegal maintenance!