Мужчины за работой / Men at work (Эмилио Эстевес / Emilio Estevez) [1990, США, комедия, боевик, триллер, HDTVRip-AVC] MVO + AVO (Гаврилов) + AVO (Иванов) + AVO (Сербин) + Sub Eng + Original Eng

DL-List and Torrent activity
Size:  3.51 GB   |    Registered:  2 years 10 months   |    Completed:  16 times
Seeders:  3  
 
   
 
 

Max Levien ®

Longevity:
2 years 10 months
Posts:
20374

[Quote] 

Мужчины за работой / Men at work
Страна: США
Жанр: комедия, боевик, триллер
Год выпуска: 1990
Продолжительность: 01:34:21
Перевод: Профессиональный (многоголосый закадровый)
Перевод 2: Авторский (одноголосый закадровый) Гаврилов
Перевод 3: Авторский (одноголосый закадровый) Иванов
Перевод 4: Авторский (одноголосый закадровый) Сербин
Субтитры: английские
Оригинальная аудиодорожка: английский
Режиссер: Эмилио Эстевес / Emilio Estevez
В ролях: Чарли Шин, Эмилио Эстевез, Лесли Хоуп, Кит Дэвид, Дин Кэмерон, Джон Гец, Хоук Волински, Джон Лавакьелли, Джеффри Блейк, Кэмерон Дай
Описание: Два мусорщика, Джеймс и Карл, для которых закон не писан, а начальник - не авторитет, часто пренебрегают своими прямыми обязанностями ради очередного веселенького приключения. Но их забавам приходит конец, когда на помойке Карл и Джеймс обнаруживают труп местного политика. Ведь они понимают, что станут первыми подозреваемыми в деле об убийстве. И вот мусорщики пытаются спасти свои шкуры, а за ними под веселую музыку, шутки и прибаутки гонятся полицейские и настоящие убийцы.
Сэмпл: http://multi-up.com/855617
Качество видео: HDTVRip-AVC
Формат видео: MKV
Видео: MPEG-4 AVC Video(х264), 992x558, 1.7778:1(16x9), 25.0 fps, 3513 Kbps, 0.254 bit/pixel
Аудио: Многоголосый - 48 kHz, AC3 Dolby Digital, 3/2 (L,C,R,l,r) + LFE ch, ~384.00 kbps
Аудио 2: Original 48 kHz, AC3 Dolby Digital, 3/2 (L,C,R,l,r) + LFE ch, ~384.00
Аудио 3: А.Гаврилов - 48 kHz, AC3 Dolby Digital, 3/2 (L,C,R,l,r) + LFE ch, ~384.00 kbps - отдельно
Аудио 4: М.Иванов - 48 kHz, AC3 Dolby Digital, 3/2 (L,C,R,l,r) + LFE ch, ~384.00 kbps - отдельно
Аудио 4: Ю.Сербин - 48 kHz, AC3 Dolby Digital, 2/0 (L,R) ch, ~192.00 kbps - отдельно
Формат субтитров: softsub (SRT)
Доп. информация о субтитрах: UTF-8

MediaInfo

Уникальный идентификатор : 189447951792250925490044353715720292819 (0x8E86592BE3BE93E3B4473E42B58209D3)
Полное имя : E:\Men.At.Work\Men.At.Work .mkv
Формат : Matroska
Версия формата : Version 2
Размер файла : 2,88 Гбайт
Продолжительность : 1 ч. 34 м.
Общий поток : 4367 Кбит/сек
Название фильма : Men.At.Work
Дата кодирования : UTC 2013-04-17 08:56:19
Программа кодирования : mkvmerge v3.4.0 ('Rapunzel') сборка от May 15 2010 09:38:20
Библиотека кодирования : libebml v0.8.0 + libmatroska v0.9.0
Видео
Идентификатор : 1
Формат : AVC
Формат/Информация : Advanced Video Codec
Профиль формата : [email protected]
Параметр CABAC формата : Да
Параметр ReFrames формата : 14 кадров
Идентификатор кодека : V_MPEG4/ISO/AVC
Продолжительность : 1 ч. 34 м.
Битрейт : 3513 Кбит/сек
Ширина : 992 пикселя
Высота : 558 пикселей
Соотношение сторон : 16:9
Режим частоты кадров : Постоянный
Частота кадров : 25,000 кадров/сек
Цветовое пространство : YUV
Субдискретизация насыщенности : 4:2:0
Битовая глубина : 8 бит
Тип развёртки : Прогрессивная
Бит/(Пиксели*Кадры) : 0.254
Размер потока : 2,32 Гбайт (80%)
Заголовок : Men.At.Work
Библиотека кодирования : x264 core 130 r2273 b3065e6
Настройки программы : cabac=1 / ref=14 / deblock=1:-2:-1 / analyse=0x3:0x133 / me=umh / subme=11 / psy=1 / psy_rd=1.00:0.00 / mixed_ref=1 / me_range=64 / chroma_me=1 / trellis=2 / 8x8dct=1 / cqm=0 / deadzone=21,11 / fast_pskip=1 / chroma_qp_offset=-2 / threads=9 / lookahead_threads=2 / sliced_threads=0 / nr=0 / decimate=1 / interlaced=0 / bluray_compat=0 / constrained_intra=0 / bframes=13 / b_pyramid=2 / b_adapt=2 / b_bias=0 / direct=1 / weightb=1 / open_gop=0 / weightp=2 / keyint=250 / keyint_min=25 / scenecut=40 / intra_refresh=0 / rc=crf / mbtree=0 / crf=18.4 / qcomp=0.60 / qpmin=0 / qpmax=69 / qpstep=4 / ip_ratio=1.40 / pb_ratio=1.15 / aq=1:0.80 / zones=135640,141537,q=35
Язык : English
Default : Нет
Forced : Нет
Аудио #1
Идентификатор : 2
Формат : AC-3
Формат/Информация : Audio Coding 3
Расширение режима : CM (complete main)
Параметр Endianness формата : Big
Идентификатор кодека : A_AC3
Продолжительность : 1 ч. 34 м.
Вид битрейта : Постоянный
Битрейт : 384 Кбит/сек
Каналы : 6 каналов
Расположение каналов : Front: L C R, Side: L R, LFE
Частота : 48,0 КГц
Битовая глубина : 16 бит
Метод сжатия : С потерями
Размер потока : 259 Мбайт (9%)
Заголовок : Men.At.Work (MVO)
Язык : Russian
Default : Да
Forced : Нет
Аудио #2
Идентификатор : 3
Формат : AC-3
Формат/Информация : Audio Coding 3
Расширение режима : CM (complete main)
Параметр Endianness формата : Big
Идентификатор кодека : A_AC3
Продолжительность : 1 ч. 34 м.
Вид битрейта : Постоянный
Битрейт : 384 Кбит/сек
Каналы : 6 каналов
Расположение каналов : Front: L C R, Side: L R, LFE
Частота : 48,0 КГц
Битовая глубина : 16 бит
Метод сжатия : С потерями
Размер потока : 259 Мбайт (9%)
Заголовок : Men.At.Work (original)
Язык : English
Default : Нет
Forced : Нет
Текст
Идентификатор : 4
Формат : UTF-8
Идентификатор кодека : S_TEXT/UTF8
Идентификатор кодека/Информация : UTF-8 Plain Text
Default : Да
Forced : Нет

Log x.264

avs4x264.exe: -L x264_64.exe --crf 18.4 --preset veryslow --profile high --level 4.1 --ref 14 --aq-strength 0.8 --deblock -2:-1 --merange 64 --bframes 13 --direct spatial --subme 11 --no-mbtree --pbratio 1.15 --zones=135640,141537,q=35 --sar 1:1 --output "E:\Men.At.Work.1990.DVB.HDTV.1080i.CANAL+FILMHD.[satnews].ts\Новая папка\Men.At.Work.DVB.HDTV.1080i.CANAL+FILMHD.[satnews].mkv" "D:\Temp\0012.avs"
raw [info]: 992x558p 1:1 @ 25/1 fps (cfr)
x264 [info]: using SAR=1/1
x264 [info]: using cpu capabilities: MMX2 SSE2Fast SSEMisalign LZCNT
x264 [info]: profile High, level 4.1
x264 [info]: frame I:1040 Avg QP:17.52 size: 62111
x264 [info]: frame P:27091 Avg QP:20.28 size: 29657
x264 [info]: frame B:113406 Avg QP:20.97 size: 14793
x264 [info]: consecutive B-frames: 1.1% 1.2% 4.5% 13.5% 14.1% 54.5% 6.7% 1.3% 1.5% 0.4% 0.5% 0.4% 0.2% 0.2%
x264 [info]: mb I I16..4: 3.3% 83.9% 12.8%
x264 [info]: mb P I16..4: 0.4% 11.0% 1.1% P16..4: 29.6% 37.4% 13.3% 1.1% 0.0% skip: 6.1%
x264 [info]: mb B I16..4: 0.0% 1.3% 0.1% B16..8: 37.8% 25.3% 5.4% direct: 9.2% skip:20.9% L0:41.3% L1:45.8% BI:12.9%
x264 [info]: 8x8 transform intra:88.1% inter:59.0%
x264 [info]: coded y,uvDC,uvAC intra: 95.2% 84.6% 52.9% inter: 43.4% 30.2% 1.9%
x264 [info]: i16 v,h,dc,p: 38% 30% 7% 26%
x264 [info]: i8 v,h,dc,ddl,ddr,vr,hd,vl,hu: 7% 6% 6% 11% 16% 15% 14% 12% 13%
x264 [info]: i4 v,h,dc,ddl,ddr,vr,hd,vl,hu: 11% 9% 3% 9% 15% 16% 14% 12% 12%
x264 [info]: i8c dc,h,v,p: 39% 24% 19% 17%
x264 [info]: Weighted P-Frames: Y:12.7% UV:5.8%
x264 [info]: ref P L0: 38.1% 9.0% 17.8% 7.3% 6.3% 4.5% 4.2% 2.3% 2.3% 1.9% 1.8% 1.5% 1.5% 1.4% 0.2% 0.0%
x264 [info]: ref B L0: 74.5% 11.0% 4.6% 2.4% 1.8% 1.5% 1.2% 0.8% 0.7% 0.6% 0.5% 0.3% 0.1%
x264 [info]: ref B L1: 93.9% 6.1%
x264 [info]: kb/s:3597.23
x264 [total]: encoded 141537 frames, 5.39 fps, 3597.23 kb/s

If your ratio falls below 0.3, you will not be able to download Torrents! More about the rating.

[erzsebet.pl].t48865.torrent
Torrent: Registered   [ 2017-12-10 22:03 ]

Download .torrent

Download

18 KB

Status: checked
Completed: 16 times
Size: 3.51 GB
terms.php

#1

10-Dec-2017 22:02

[Profile]  [PM] 
Display posts:    

You cannot post new topics in this forum
You cannot reply to topics in this forum
You cannot edit your posts in this forum
You cannot delete your posts in this forum
You cannot vote in polls in this forum
You cannot attach files in this forum
You can download files in this forum
User agreement
For copyright holders
Advertise on this site

Скачайте на халяву через торрент на трекере erzsebet.pl

!ATTENTION!
The site does not give electronic versions of products, and is engaged only in a collecting and cataloguing of the references sent and published at a forum by our readers. If you are the legal owner of any submitted material and do not wish that the reference to it was in our catalogue, contact us and we shall immediately remove her. Files for an exchange on tracker are given by users of a site, and the administration does not bear the responsibility for their maintenance. The request to not fill in the files protected by copyrights, and also files of the illegal maintenance!