Профессор Мамлок / Professor Mamlock (Конрад Вольф / Konrad Wolf) [1961, Германия (ГДР), Драма, DVDRip-AVC] Dub (советский дубляж) + Sub Rus + Original Ger

DL-List and Torrent activity
Size:  1.46 GB   |    Registered:  2 years 10 months   |    Completed:  16 times
Seeders:  3  
 
   
 
 

Max Levien ®

Longevity:
2 years 10 months
Posts:
20374

[Quote] 

Профессор Мамлок / Professor Mamlock
Жанр: Драма
Страна: Германия (ГДР)
Студия: Deutsche Film (DEFA)
Год выпуска: 1961
Продолжительность: 01:32:53
Перевод: Профессиональный (дублированный) - киностудия им. М.Горького
Субтитры: русские (только на немецкий текст в начале и в конце фильма)
Оригинальная аудиодорожка: немецкий
Режиссер: Конрад Вольф / Konrad Wolf
В ролях:
Вольфганг Хайнц / Wolfgang Heinz ... Professor Mamlock
Урсула Бург / Ursula Burg ... Ellen Mamlock
Хильмар Тате / Hilmar Thate ... Rolf Mamlock
Лисси Темпельхоф / Lissy Tempelhof ... Dr. Inge Ruoff
Дорис Абессер / Doris Abeßer ... Ruth Mamlock
Ульрих Тайн / Ulrich Thein ... Ernst
Харольд Хальгардт / Harald Halgardt ... Dr. Hellpach
Херварт Гроссе / Herwart Grosse ... Dr. Carlsen
Петер Штурм / Peter Sturm ... Dr. Hirsch
Франц Кучера / Franz Kutschera ... Dr. Werner Seidel
Курт Юнг-Альзен / Kurt Jung-Alsen ... Bankier Schneider
Гюнтер Науманн / Günter Naumann ... Kurt Walter
Агнес Краус / Agnes Kraus ... Schwester Hedwig
Гюнтер Грабберт / Günther Grabbert ... Simon
Манфред Круг / Manfred Krug ... SA-Sturmbannführer
Описание: По пьесе Фридриха Вольфа (Friedrich Wolf), написанной в 1933 году.
Уважаемый еврейский хирург, Профессор Мамлок уверен, что Веймарская республика преодолеет политический кризис 1930-х годов. Он не разделяет взгляды своего сына — коммуниста Рольфа, открыто выступающего против нацистов. Но когда к власти в стране приходит Гитлер, Мамлок теряет и свою работу, и чувство собственно достоинства...
Дополнительная информация: Релиз:
Автор рипа: pmv
Исходник (немецкое издание) найден в сети - спасибо Angelos13.
Большое Спасибо за:
- звуковую дорожку с советским дубляжем - Dego80
- синхронизацию звука - pmv
Фильм дублирован на киностудии им. М.Горького в 1962 году.
Режиссер дубляжа: Александр Андриевский
Звукооператор дубляжа: Д.Флянгольц
Роли дублировали: Анатолий Кузнецов, Владимир Балашов, Владимир Осенев, Владимир Прокофьев, Данута Столярская, Евгений Весник, Константин Барташевич, Константин Николаев, Надежда Румянцева, Николай Граббе, Нина Никитина, Сергей Цейц
Награды и номинации:
II Московский Международный Кинофестиваль (Москва), 1961
Победитель (1):
- Золотой приз (Конрад Вольф)
Номинация (1):
- Главный приз (Конрад Вольф)
IMDb = 7.5/10 (65) - http://www.imdb.com/title/tt0055331/
Кинопоиск = - (47) - http://www.kinopoisk.ru/film/240432/
ПРОСЬБА к СКАЧАВШИМ. НЕ УХОДИТЕ С РАЗДАЧИ, ПОМОГИТЕ ДРУГИМ СКАЧАТЬ!!!
ВНИМАНИЕ!!! РИП ФОРМАТА mkv (кодек H.264) ВОСПРОИЗВОДИТСЯ НЕ НА ВСЕХ БЫТОВЫХ ВИДЕОПЛЕЕРАХ!!!
Качество видео: DVDRip
Формат видео: MKV
Видео: AVC (H264), [email protected] (4:3), 29.97 fps, 1870 Kbps, 0.154 Bits/Pixel
Аудио #1: AC3, 48 KHz, stereo (2 ch), 192.00 kbps – советский дубляж
Аудио #2: AC3, 48 KHz, stereo (2 ch), 192.00 kbps – немецкий

MediaInfo

General
Unique ID : 226566782003618748542762435063202325701 (0xAA732CCBE901A4AE93BBF15245B224C5)
Complete name : D:\torrents\Professor Mamlock (1961, rus_dub+ger).mkv
Format : Matroska
Format version : Version 4 / Version 2
File size : 1.46 GiB
Duration : 1h 32mn
Overall bit rate : 2 254 Kbps
Encoded date : UTC 2016-03-07 17:09:32
Writing application : mkvmerge v6.7.0 ('Back to the Ground') 32bit built on Jan 8 2014 15:03:17
Writing library : libebml v1.3.0 + libmatroska v1.4.1
DURATION : 01:32:31.584000000
NUMBER_OF_FRAMES : 173487
NUMBER_OF_BYTES : 133238016
_STATISTICS_WRITING_APP : mkvmerge v8.9.0 ('Father Daughter') 64bit
_STATISTICS_WRITING_DATE_UTC : 2016-03-04 09:18:40
_STATISTICS_TAGS : BPS DURATION NUMBER_OF_FRAMES NUMBER_OF_BYTES
Video
ID : 1
Format : AVC
Format/Info : Advanced Video Codec
Format profile : [email protected]
Format settings, CABAC : Yes
Format settings, ReFrames : 16 frames
Codec ID : V_MPEG4/ISO/AVC
Duration : 1h 32mn
Bit rate : 1 870 Kbps
Width : 704 pixels
Height : 576 pixels
Display aspect ratio : 4:3
Original display aspect ratio : 1.222
Frame rate mode : Constant
Frame rate : 29.970 fps
Standard : PAL
Color space : YUV
Chroma subsampling : 4:2:0
Bit depth : 8 bits
Scan type : Progressive
Bits/(Pixel*Frame) : 0.154
Stream size : 1.18 GiB (81%)
Writing library : x264 core 146 r2538 121396c
Encoding settings : cabac=1 / ref=16 / deblock=1:0:0 / analyse=0x3:0x133 / me=umh / subme=10 / psy=1 / psy_rd=1.00:0.00 / mixed_ref=1 / me_range=24 / chroma_me=1 / trellis=2 / 8x8dct=1 / cqm=0 / deadzone=21,11 / fast_pskip=1 / chroma_qp_offset=-2 / threads=36 / lookahead_threads=4 / sliced_threads=0 / nr=0 / decimate=1 / interlaced=0 / bluray_compat=0 / constrained_intra=0 / bframes=8 / b_pyramid=2 / b_adapt=2 / b_bias=0 / direct=3 / weightb=1 / open_gop=0 / weightp=2 / keyint=250 / keyint_min=25 / scenecut=40 / intra_refresh=0 / rc_lookahead=60 / rc=2pass / mbtree=1 / bitrate=1870 / ratetol=1.0 / qcomp=0.60 / qpmin=0 / qpmax=69 / qpstep=4 / cplxblur=20.0 / qblur=0.5 / ip_ratio=1.40 / aq=1:1.00
Language : German
Default : Yes
Forced : No
Audio #1
ID : 2
Format : AC-3
Format/Info : Audio Coding 3
Mode extension : CM (complete main)
Format settings, Endianness : Big
Codec ID : A_AC3
Duration : 1h 32mn
Bit rate mode : Constant
Bit rate : 192 Kbps
Channel(s) : 2 channels
Channel positions : Front: L R
Sampling rate : 48.0 KHz
Bit depth : 16 bits
Compression mode : Lossy
Stream size : 128 MiB (9%)
Language : Russian
Default : Yes
Forced : No
Audio #2
ID : 3
Format : AC-3
Format/Info : Audio Coding 3
Mode extension : CM (complete main)
Format settings, Endianness : Big
Codec ID : A_AC3
Duration : 1h 32mn
Bit rate mode : Constant
Bit rate : 192 Kbps
Channel(s) : 2 channels
Channel positions : Front: L R
Sampling rate : 48.0 KHz
Bit depth : 16 bits
Compression mode : Lossy
Stream size : 128 MiB (9%)
Language : German
Default : No
Forced : No
Text
ID : 4
Format : UTF-8
Codec ID : S_TEXT/UTF8
Codec ID/Info : UTF-8 Plain Text
Default : Yes
Forced : No

Скриншот c названием фильма

Русские субтитры

1
00:00:18,840 --> 00:00:24,780
ФРИДРИХ ВОЛЬФ написал пьесу
"ПРОФЕССОР МАМЛОК" в 1933 году
2
00:00:24,920 --> 00:00:30,570
ТОГДА ЕЩЁ НЕ БЫЛО
ЛАГЕРЕЙ СМЕРТИ ...
3
00:00:30,800 --> 00:00:36,690
НЕ БЫЛИ ИЗОБРЕТЕНЫ
ГАЗОВЫЕ КАМЕРЫ ...
4
00:00:36,850 --> 00:00:42,210
ЕЩЁ НЕ БЫЛИ УБИТЫ
ШЕСТЬ МИЛЛИОНОВ ЕВРЕЕВ ...
5
00:00:42,380 --> 00:00:48,120
ВТОРАЯ МИРОВАЯ ВОЙНА БЫЛА
ТОЛЬКО ДАЛЁКИМ БУДУЩИМ ...
6
01:32:12,460 --> 01:32:20,890
НЕТ БОЛЬШЕГО ПРЕСТУПЛЕНИЯ,
ЧЕМ ОТКАЗ ОТ БОРЬБЫ,
КОГДА БОРЬБА НЕОБХОДИМА
МОИ РАЗДАЧИ НА РУТРЕКЕРЕ: http://erzsebet.org/forum/tracker.php?rid=27390064

If your ratio falls below 0.3, you will not be able to download Torrents! More about the rating.

[erzsebet.pl].t48867.torrent
Torrent: Registered   [ 2017-12-10 22:03 ]

Download .torrent

Download

15 KB

Status: checked
Completed: 16 times
Size: 1.46 GB
terms.php

#1

10-Dec-2017 22:02

[Profile]  [PM] 
Display posts:    

You cannot post new topics in this forum
You cannot reply to topics in this forum
You cannot edit your posts in this forum
You cannot delete your posts in this forum
You cannot vote in polls in this forum
You cannot attach files in this forum
You can download files in this forum
User agreement
For copyright holders
Advertise on this site

Скачайте на халяву через торрент на трекере erzsebet.pl

!ATTENTION!
The site does not give electronic versions of products, and is engaged only in a collecting and cataloguing of the references sent and published at a forum by our readers. If you are the legal owner of any submitted material and do not wish that the reference to it was in our catalogue, contact us and we shall immediately remove her. Files for an exchange on tracker are given by users of a site, and the administration does not bear the responsibility for their maintenance. The request to not fill in the files protected by copyrights, and also files of the illegal maintenance!