Октагон / Восьмиугольник / The Octagon (Эрик Карсон / Eric Karson) [1980, США, боевик, триллер, драма, DVDRip-AVC] MVO + AVO (Живов) + Eng

DL-List and Torrent activity
Size:  2.17 GB   |    Registered:  2 years 10 months   |    Completed:  16 times
Seeders:  3  
 
   
 
 

Max Levien ®

Longevity:
2 years 10 months
Posts:
20374

[Quote] 

Октагон / ВосьмиугольникThe Octagon- Страна: США
Жанр: боевик, триллер, драма
Год выпуска: 1980
Продолжительность: 01:43:45
Перевод 1: Профессиональный (многоголосый закадровый)
Перевод 2: Авторский (одноголосый закадровый) - Живов
Субтитры: нет
Оригинальная аудиодорожка: английский
Режиссер: Эрик Карсон / Eric Karson
В ролях: Чак Норрис /Chuck Norris/, Кэрен Карлсон /Karen Carlson/, Ли Ван Клиф /Lee Van Cleef/, Арт Хиндл /Art Hindle/, Джек Картер /Jack Carter/, Кэрол Багдасарян /Carol Bagdasarian/, Тадаши Ямашита /Tadashi Yamashita/
Описание:
Богатая дама Джастин насмерть напугана: ей угрожает банда головорезов. Единственное, что может ее спасти — это телохранитель, самый лучший. И она находит его. Но Скотта Джеймса, бывшего чемпиона по каратэ, не так-то легко уговорить. Даже за большие деньги. Он соглашается, лишь узнав, что руководит бандитами его заклятый враг Тадаши Ямашита, с которым вместе Скотт учился боевым искусствам.
IMDb: 4.70 (2 023)
Семпл: 29,4mb
Исходник: DVD5
Качество видео: DVDRip-AVC {by big1987}
Формат видео: MKV
Видео: кодек: h.264, размер кадра: 708x480 @ 708x540, битрейт: 2065 Kbps, Bits/(Pixel*Frame) : 0.253
Аудио 1: аудиокодек: MP3 2.0, 44.1 KHz, битрейт аудио: 160 кб/с - Многоголосный
Аудио 2: аудиокодек: AC3 5.1, 48 KHz, битрейт аудио: 384 кб/с - Живов
Аудио 3: аудиокодек: AC3 5.1, 48 KHz, битрейт аудио: 384 кб/с - Английский
Размер рипа: 2.16Гб

MediaInfo

Format : Matroska
Format version : Version 2
File size : 2.17 GiB
Duration : 1h 43mn
Overall bit rate : 2 996 Kbps
Movie name : Октагон [1980, DVDRip-AVC] || big1987
Encoded date : UTC 2011-11-28 02:07:27
Writing application : mkvmerge v5.0.1 ('Es ist Sommer') built on Nov 6 2011 16:23:40
Writing library : libebml v1.2.2 + libmatroska v1.3.0
Video
ID : 1
Format : AVC
Format/Info : Advanced Video Codec
Format profile : [email protected]
Format settings, CABAC : Yes
Format settings, ReFrames : 9 frames
Codec ID : V_MPEG4/ISO/AVC
Duration : 1h 43mn
Bit rate : 2 065 Kbps
Width : 708 pixels
Height : 480 pixels
Display aspect ratio : 4:3
Frame rate : 23.976 fps
Color space : YUV
Chroma subsampling : 4:2:0
Bit depth : 8 bits
Scan type : Progressive
Bits/(Pixel*Frame) : 0.253
Stream size : 1.46 GiB (67%)
Title : Октагон [1980, DVDRip-AVC] || big1987
Writing library : x264 core 119 r2106 07efeb4
Encoding settings : cabac=1 / ref=9 / deblock=1:-2:-1 / analyse=0x3:0x133 / me=umh / subme=9 / psy=1 / psy_rd=1.00:0.20 / mixed_ref=1 / me_range=48 / chroma_me=1 / trellis=2 / 8x8dct=1 / cqm=0 / deadzone=21,11 / fast_pskip=1 / chroma_qp_offset=-3 / threads=6 / sliced_threads=0 / nr=0 / decimate=1 / interlaced=0 / bluray_compat=0 / constrained_intra=0 / bframes=6 / b_pyramid=2 / b_adapt=2 / b_bias=0 / direct=3 / weightb=1 / open_gop=0 / weightp=2 / keyint=250 / keyint_min=23 / scenecut=40 / intra_refresh=0 / rc_lookahead=60 / rc=2pass / mbtree=1 / bitrate=2065 / ratetol=1.0 / qcomp=0.60 / qpmin=0 / qpmax=69 / qpstep=4 / cplxblur=20.0 / qblur=0.5 / ip_ratio=1.40 / aq=1:1.00
Language : English
Audio #1
ID : 2
Format : MPEG Audio
Format version : Version 1
Format profile : Layer 3
Mode : Joint stereo
Codec ID : A_MPEG/L3
Codec ID/Hint : MP3
Duration : 1h 43mn
Bit rate mode : Constant
Bit rate : 160 Kbps
Channel(s) : 2 channels
Sampling rate : 44.1 KHz
Compression mode : Lossy
Stream size : 119 MiB (5%)
Title : MVO [MP3 [email protected]]
Language : Russian
Audio #2
ID : 3
Format : AC-3
Format/Info : Audio Coding 3
Mode extension : CM (complete main)
Codec ID : A_AC3
Duration : 1h 43mn
Bit rate mode : Constant
Bit rate : 384 Kbps
Channel(s) : 6 channels
Channel positions : Front: L C R, Side: L R, LFE
Sampling rate : 48.0 KHz
Bit depth : 16 bits
Compression mode : Lossy
Stream size : 285 MiB (13%)
Title : AVO {Живов} [AC3 [email protected]]
Language : Russian
Audio #3
ID : 4
Format : AC-3
Format/Info : Audio Coding 3
Mode extension : CM (complete main)
Codec ID : A_AC3
Duration : 1h 43mn
Bit rate mode : Constant
Bit rate : 384 Kbps
Channel(s) : 6 channels
Channel positions : Front: L C R, Side: L R, LFE
Sampling rate : 48.0 KHz
Bit depth : 16 bits
Compression mode : Lossy
Stream size : 285 MiB (13%)
Title : [AC3 [email protected]]
Language : English

If your ratio falls below 0.3, you will not be able to download Torrents! More about the rating.

[erzsebet.pl].t48878.torrent
Torrent: Registered   [ 2017-12-10 22:03 ]

Download .torrent

Download

11 KB

Status: checked
Completed: 16 times
Size: 2.17 GB
terms.php

#1

10-Dec-2017 22:02

[Profile]  [PM] 
Display posts:    

You cannot post new topics in this forum
You cannot reply to topics in this forum
You cannot edit your posts in this forum
You cannot delete your posts in this forum
You cannot vote in polls in this forum
You cannot attach files in this forum
You can download files in this forum
User agreement
For copyright holders
Advertise on this site

Скачайте на халяву через торрент на трекере erzsebet.pl

!ATTENTION!
The site does not give electronic versions of products, and is engaged only in a collecting and cataloguing of the references sent and published at a forum by our readers. If you are the legal owner of any submitted material and do not wish that the reference to it was in our catalogue, contact us and we shall immediately remove her. Files for an exchange on tracker are given by users of a site, and the administration does not bear the responsibility for their maintenance. The request to not fill in the files protected by copyrights, and also files of the illegal maintenance!