Джентльмены удачи / Погоня за удачей / Thieves of Fortune (Майкл МакКарти / Michael MacCarthy) [1989, США, ЮАР, Боевик, приключения, VHSRip] AVO (Сонькин)

DL-List and Torrent activity
Size:  1.37 GB   |    Registered:  2 years 10 months   |    Completed:  16 times
Seeders:  3  
 
   
 
 

Max Levien ®

Longevity:
2 years 10 months
Posts:
20374

[Quote] 

Джентльмены удачи / Погоня за удачей / Thieves of Fortune
Страна: США, ЮАР
Жанр: Боевик, приключения
Год выпуска: 1989
Продолжительность: 01:39:46
Перевод: Авторский (одноголосый закадровый) Владимир Сонькин
Субтитры: нет
Режиссер: Майкл МакКарти / Michael MacCarthy
В ролях: Майкл Нури, Ли Ван Клиф, Шон Уэзерли, Крэйг Гарднер, Лиз Торрес, Рассел Савадье, Джон Хасси, Тони Капрари, Джо Рибейро, Надя Билчик
Описание: Когда женщина по-настоящему что-то хочет, она способна на все. Эта расхожая истина еще раз находит свое подтверждение в этом приключенческом фильме, героиня которого претендует на наследство в 28 миллионов долларов и любовь парня, к которому она неравнодушна. Но чтобы добиться этого, ей приходится пройти через невероятные испытания. Яростные побоища и человеческие жертвоприношения, контрабанда наркотиков и гонки на мотоциклах, подъем на неприступные скалы и прыжки в водопад — здесь есть все, потому что в состязании, в котором победитель получает 28 миллионов долларов, есть только одно правило — отсутствие правил.
Доп. информация: Исходник
Сэмпл: http://multi-up.com/840620
Качество видео: VHSRip
Формат видео: AVI
Видео: XviD build 50, 528x400 (1.32:1), 25 fps, 1822 kbps avg
Аудио: MPEG Layer 3, 48 kHz, 2/0 (L,R) ch, 128.00 kbps avg

MediaInfo

General
Complete name : D:\Thieves.of.fortune.1989.VHSRip-Dego.avi
Format : AVI
Format/Info : Audio Video Interleave
File size : 1.37 GiB
Duration : 1h 39mn
Overall bit rate : 1 961 Kbps
Writing application : VirtualDubMod 1.5.10.2 (build 2540/release)
Writing library : VirtualDubMod build 2540/release
Video
ID : 0
Format : MPEG-4 Visual
Format profile : [email protected]
Format settings, BVOP : Yes
Format settings, QPel : No
Format settings, GMC : No warppoints
Format settings, Matrix : Default (MPEG)
Codec ID : XVID
Codec ID/Hint : XviD
Duration : 1h 39mn
Bit rate : 1 823 Kbps
Width : 528 pixels
Height : 400 pixels
Display aspect ratio : 4/3
Frame rate : 25.000 fps
Resolution : 24 bits
Colorimetry : 4:2:0
Scan type : Progressive
Bits/(Pixel*Frame) : 0.345
Stream size : 1.27 GiB (93%)
Writing library : XviD 1.2.1 (UTC 2008-12-04)
Audio
ID : 1
Format : MPEG Audio
Format version : Version 1
Format profile : Layer 3
Codec ID : 55
Codec ID/Hint : MP3
Duration : 1h 39mn
Bit rate mode : Constant
Bit rate : 128 Kbps
Channel(s) : 2 channels
Sampling rate : 48.0 KHz
Resolution : 16 bits
Stream size : 91.3 MiB (7%)
Alignment : Aligned on interleaves
Interleave, duration : 40 ms (1.00 video frame)
Interleave, preload duration : 504 ms
Writing library : LAME3.98r
Encoding settings : -m s -V 4 -q 2 -lowpass 17 -b 128

Скриншоты

If your ratio falls below 0.3, you will not be able to download Torrents! More about the rating.

[erzsebet.pl].t48881.torrent
Torrent: Registered   [ 2017-12-10 22:03 ]

Download .torrent

Download

14 KB

Status: checked
Completed: 16 times
Size: 1.37 GB
terms.php

#1

10-Dec-2017 22:02

[Profile]  [PM] 
Display posts:    

You cannot post new topics in this forum
You cannot reply to topics in this forum
You cannot edit your posts in this forum
You cannot delete your posts in this forum
You cannot vote in polls in this forum
You cannot attach files in this forum
You can download files in this forum
User agreement
For copyright holders
Advertise on this site

Скачайте на халяву через торрент на трекере erzsebet.pl

!ATTENTION!
The site does not give electronic versions of products, and is engaged only in a collecting and cataloguing of the references sent and published at a forum by our readers. If you are the legal owner of any submitted material and do not wish that the reference to it was in our catalogue, contact us and we shall immediately remove her. Files for an exchange on tracker are given by users of a site, and the administration does not bear the responsibility for their maintenance. The request to not fill in the files protected by copyrights, and also files of the illegal maintenance!