Скрытые / Скрытый враг / Спрятанный / The Hidden (Джек Шолдер / Jack Sholder) [1987, США, ужасы, фантастика, боевик, DVDRip] MVO

DL-List and Torrent activity
Size:  748 MB   |    Registered:  2 years 10 months   |    Completed:  16 times
Seeders:  2   Leechers:  1   Show peers in full details
 
   
 
 

Max Levien ®

Longevity:
2 years 10 months
Posts:
20374

[Quote] 

Скрытые / Скрытый враг / Спрятанный / The Hidden
Страна: США
Жанр: ужасы, фантастика, боевик
Год выпуска: 1987
Продолжительность: 01:37:13
-
Перевод: Профессиональный (многоголосый закадровый)
Субтитры: нет
-
Режиссер: Джек Шолдер / Jack Sholder
В ролях: Кайл МакЛоклен, Майкл Нури, Клаудия Кристиан, Кларенс Фелдер, Клу Гулагер, Эд О’Росс, Уильям Бойетт, Ричард Брукс, Ларри Седар, Кэтерин Кэннон
-
Описание: Отдел по расследованию убийств не спит уже которую ночь: по городу катится волна необычных преступлений. Своеобразие их в том, что все преступники — вполне добропорядочные и законопослушные граждане, в которых будто бы сам черт вселился, заставляя их творить всяческие кошмарные, ненормальные вещи. У детектива Тома Бека, ведущего следствие по этому делу, просто голова кругом идет…И уж, конечно же, меньше всего ему хочется оказывать всяческое содействие присланному сверху сотруднику ФБР Ллойду Гэллагеру, — человеку со странностями, логику которого понять, кажется, абсолютно невозможно. Но что если и вправду это дело рук инопланетян, вселяющихся в тела землян?
-

-

-
Качество видео: DVDRip (Исходник DVD5)
Формат видео: AVI
Видео: 624x336 (1.86:1), 23.976 fps, XviD build 50 ~874 kbps avg, 0.17 bit/pixel
Аудио: 48 kHz, AC3 Dolby Digital, 2/0 (L,R) ch, ~192.00 kbps avg

MediaInfo

General
Complete name : D:\Релизы\Скрытые (1987).avi
Format : AVI
Format/Info : Audio Video Interleave
File size : 748 MiB
Duration : 1h 37mn
Overall bit rate : 1 075 Kbps
Writing application : VirtualDubMod 1.5.10.2 (build 2540/release)
Writing library : VirtualDubMod build 2540/release
Video
ID : 0
Format : MPEG-4 Visual
Format profile : Advanced [email protected]
Format settings, BVOP : 1
Format settings, QPel : No
Format settings, GMC : No warppoints
Format settings, Matrix : Custom
Codec ID : XVID
Codec ID/Hint : XviD
Duration : 1h 37mn
Bit rate : 874 Kbps
Width : 624 pixels
Height : 336 pixels
Display aspect ratio : 1.857
Frame rate : 23.976 fps
Color space : YUV
Chroma subsampling : 4:2:0
Bit depth : 8 bits
Scan type : Progressive
Compression mode : Lossy
Bits/(Pixel*Frame) : 0.174
Stream size : 608 MiB (81%)
Writing library : XviD 1.2.1 (UTC 2008-12-04)
Audio
ID : 1
Format : AC-3
Format/Info : Audio Coding 3
Mode extension : CM (complete main)
Codec ID : 2000
Duration : 1h 37mn
Bit rate mode : Constant
Bit rate : 192 Kbps
Channel(s) : 2 channels
Channel positions : Front: L R
Sampling rate : 48.0 KHz
Bit depth : 16 bits
Compression mode : Lossy
Stream size : 134 MiB (18%)
Alignment : Split accross interleaves
Interleave, duration : 42 ms (1.00 video frame)
Interleave, preload duration : 500 ms

Скриншоты

If your ratio falls below 0.3, you will not be able to download Torrents! More about the rating.

[erzsebet.pl].t48885.torrent
Torrent: Registered   [ 2017-12-10 22:03 ]

Download .torrent

Download

15 KB

Status: checked
Completed: 16 times
Size: 748 MB
terms.php

#1

10-Dec-2017 22:02

[Profile]  [PM] 
Display posts:    

You cannot post new topics in this forum
You cannot reply to topics in this forum
You cannot edit your posts in this forum
You cannot delete your posts in this forum
You cannot vote in polls in this forum
You cannot attach files in this forum
You can download files in this forum
User agreement
For copyright holders
Advertise on this site

Скачайте на халяву через торрент на трекере erzsebet.pl

!ATTENTION!
The site does not give electronic versions of products, and is engaged only in a collecting and cataloguing of the references sent and published at a forum by our readers. If you are the legal owner of any submitted material and do not wish that the reference to it was in our catalogue, contact us and we shall immediately remove her. Files for an exchange on tracker are given by users of a site, and the administration does not bear the responsibility for their maintenance. The request to not fill in the files protected by copyrights, and also files of the illegal maintenance!