Зубастики 2: Основное блюдо / Critters 2 (Мик Гэррис / Mick Garris) [1988, США, ужасы, фантастика, боевик, комедия, DVDRip-AVC] [Fullscreen] DVO (Инис) + Original Eng

DL-List and Torrent activity
Size:  1.45 GB   |    Registered:  2 years 10 months   |    Completed:  16 times
Seeders:  4  
 
   
 
 

Max Levien ®

Longevity:
2 years 10 months
Posts:
20374

[Quote] 

Зубастики 2: Основное блюдо / Critters 2 / Fullscreen
Страна: США
Жанр: ужасы, фантастика, боевик, комедия
Год выпуска: 1988
Продолжительность: 01:25:46
Перевод: Профессиональный (двухголосый закадровый) Инис
Субтитры: нет
Оригинальная аудиодорожка: английский
Режиссер: Мик Гэррис / Mick Garris
В ролях: Терренс Манн, Дон Кит Оппер, Синтия Гэррис, Скотт Граймз, Аль Стивенсон, Том Ходжис, Дуглас Роу, Лиан Александра Кёртис, Линдси Паркер, Херта Уэр...
Описание: Прошло 2 года с тех пор, как гадкие зубастые существа впервые терроризировали городок Гроверз Бенд и разгромили ферму Браунов. Пришло время, и из огромных зеленых яиц стали вылупляться Зубастики, как раз ко дню Святой Пасхи. Сорвав церковную службу, они вновь начинают пожирать все на своем пути. К счастью, в город приезжает храбрый юноша Брэд Браун, который объединяется со своими старыми друзьями космическими охотниками и вступает в бой с Зубастиками.
Доп. информация: За исходник видео спасибо ostrvskijjp. Синхронизация звука - Dreven.
Сэмпл: http://multi-up.com/1068156
Качество видео: DVDRip-AVC
Формат видео: MKV
Видео: 716x480 (4:3) @ 716x540, 23.976 fps, AVC, ~1780 Kbps, 0.216 bits/pixel
Аудио 1: Russian, 48.0 KHz, AC3, 6 ch, 448 Kbps - Инис
Аудио 2: English, 48.0 KHz, AC3, 2 ch, 192 Kbps

Сравнение с широформатной версией

http://screenshotcomparison.com/comparison/144078

Log

avs4x264.exe: -L x264_64.exe --pass 2 --bitrate 1780 --preset medium --ref 10 --deblock -1:-1 --merange 32 --bframes 10 --direct auto --b-adapt 2 --trellis 2 --no-fast-pskip --psy-rd 1.00:0.10 --partitions all --subme 10 --me umh --rc-lookahead 50 --sar 8:9 --stats
raw [info]: 716x480p 8:9 @ 24000/1001 fps (cfr)
x264 [info]: using SAR=8/9
x264 [info]: using cpu capabilities: MMX2 SSE2Fast LZCNT
x264 [info]: profile High, level 3.1
x264 [info]: frame I:1030 Avg QP:14.93 size: 58169
x264 [info]: frame P:25765 Avg QP:17.70 size: 21505
x264 [info]: frame B:96574 Avg QP:21.57 size: 5488
x264 [info]: consecutive B-frames: 1.6% 1.9% 8.2% 18.9% 13.0% 50.7% 2.4% 1.0% 0.8% 0.5% 1.0%
x264 [info]: mb I I16..4: 5.2% 82.7% 12.1%
x264 [info]: mb P I16..4: 1.2% 16.0% 1.5% P16..4: 35.5% 22.5% 16.4% 0.8% 0.3% skip: 5.9%
x264 [info]: mb B I16..4: 0.1% 1.4% 0.1% B16..8: 38.3% 9.9% 2.6% direct: 7.3% skip:40.2% L0:35.9% L1:41.0% BI:23.1%
x264 [info]: 8x8 transform intra:85.9% inter:66.2%
x264 [info]: direct mvs spatial:98.3% temporal:1.7%
x264 [info]: coded y,uvDC,uvAC intra: 90.5% 83.7% 55.7% inter: 28.1% 25.6% 4.2%
x264 [info]: i16 v,h,dc,p: 39% 15% 14% 32%
x264 [info]: i8 v,h,dc,ddl,ddr,vr,hd,vl,hu: 11% 11% 10% 8% 12% 11% 12% 11% 14%
x264 [info]: i4 v,h,dc,ddl,ddr,vr,hd,vl,hu: 10% 10% 5% 8% 15% 14% 14% 11% 14%
x264 [info]: i8c dc,h,v,p: 38% 27% 19% 16%
x264 [info]: Weighted P-Frames: Y:8.1% UV:3.2%
x264 [info]: ref P L0: 43.2% 12.6% 19.9% 6.0% 5.8% 3.3% 3.5% 1.8% 2.0% 1.6% 0.3% 0.0%
x264 [info]: ref B L0: 80.6% 10.4% 3.3% 1.9% 1.2% 1.1% 0.8% 0.4% 0.2%
x264 [info]: ref B L1: 95.5% 4.5%
x264 [info]: kb/s:1778.69
x264 [total]: encoded 123369 frames, 13.53 fps, 1778.68 kb/s

MediaInfo

General
Unique ID : 187244131070400618598138245084783088235 (0x8CDDE86BBC7D629D8A34658A4448926B)
Complete name : C:\Critters 2 [Fullscreen].mkv
Format : Matroska
Format version : Version 4 / Version 2
File size : 1.45 GiB
Duration : 1h 25mn
Overall bit rate : 2 421 Kbps
Encoded date : UTC 2015-09-25 11:32:28
Writing application : mkvmerge v8.2.0 ('World of Adventure') 64bit
Writing library : libebml v1.3.1 + libmatroska v1.4.2
DURATION : 01:25:45.504000000
NUMBER_OF_FRAMES : 160797
NUMBER_OF_BYTES : 288148224
_STATISTICS_WRITING_APP : mkvmerge v8.2.0 ('World of Adventure') 64bit
_STATISTICS_WRITING_DATE_UT : 2015-09-25 11:32:28
_STATISTICS_TAGS : BPS DURATION NUMBER_OF_FRAMES NUMBER_OF_BYTES
Video
ID : 1
Format : AVC
Format/Info : Advanced Video Codec
Format profile : [email protected]
Format settings, CABAC : Yes
Format settings, ReFrames : 10 frames
Codec ID : V_MPEG4/ISO/AVC
Duration : 1h 25mn
Bit rate : 1 780 Kbps
Width : 716 pixels
Height : 480 pixels
Display aspect ratio : 4:3
Frame rate mode : Constant
Frame rate : 23.976 fps
Color space : YUV
Chroma subsampling : 4:2:0
Bit depth : 8 bits
Scan type : Progressive
Bits/(Pixel*Frame) : 0.216
Stream size : 1.04 GiB (72%)
Writing library : x264 core 146 r2538 121396c
Encoding settings : cabac=1 / ref=10 / deblock=1:-1:-1 / analyse=0x3:0x133 / me=umh / subme=10 / psy=1 / psy_rd=1.00:0.10 / mixed_ref=1 / me_range=32 / chroma_me=1 / trellis=2 / 8x8dct=1 / cqm=0 / deadzone=21,11 / fast_pskip=0 / chroma_qp_offset=-3 / threads=6 / lookahead_threads=1 / sliced_threads=0 / nr=0 / decimate=1 / interlaced=0 / bluray_compat=0 / constrained_intra=0 / bframes=10 / b_pyramid=2 / b_adapt=2 / b_bias=0 / direct=3 / weightb=1 / open_gop=0 / weightp=2 / keyint=250 / keyint_min=23 / scenecut=40 / intra_refresh=0 / rc_lookahead=50 / rc=2pass / mbtree=1 / bitrate=1780 / ratetol=1.0 / qcomp=0.60 / qpmin=0 / qpmax=69 / qpstep=4 / cplxblur=20.0 / qblur=0.5 / ip_ratio=1.40 / aq=1:1.00
Language : English
Default : Yes
Forced : No
Audio #1
ID : 2
Format : AC-3
Format/Info : Audio Coding 3
Mode extension : CM (complete main)
Format settings, Endianness : Big
Codec ID : A_AC3
Duration : 1h 25mn
Bit rate mode : Constant
Bit rate : 448 Kbps
Channel(s) : 6 channels
Channel positions : Front: L C R, Side: L R, LFE
Sampling rate : 48.0 KHz
Compression mode : Lossy
Stream size : 275 MiB (19%)
Title : Инис
Language : Russian
Default : Yes
Forced : No
Audio #2
ID : 3
Format : AC-3
Format/Info : Audio Coding 3
Format profile : Dolby Digital
Mode extension : CM (complete main)
Format settings, Endianness : Big
Codec ID : A_AC3
Duration : 1h 25mn
Bit rate mode : Constant
Bit rate : 192 Kbps
Channel(s) : 2 channels
Channel positions : Front: L R
Sampling rate : 48.0 KHz
Compression mode : Lossy
Stream size : 118 MiB (8%)
Language : English
Default : No
Forced : No

Скриншоты

If your ratio falls below 0.3, you will not be able to download Torrents! More about the rating.

[erzsebet.pl].t48886.torrent
Torrent: Registered   [ 2017-12-10 22:03 ]

Download .torrent

Download

15 KB

Status: checked
Completed: 16 times
Size: 1.45 GB
terms.php

#1

10-Dec-2017 22:02

[Profile]  [PM] 
Display posts:    

You cannot post new topics in this forum
You cannot reply to topics in this forum
You cannot edit your posts in this forum
You cannot delete your posts in this forum
You cannot vote in polls in this forum
You cannot attach files in this forum
You can download files in this forum
User agreement
For copyright holders
Advertise on this site

Скачайте на халяву через торрент на трекере erzsebet.pl

!ATTENTION!
The site does not give electronic versions of products, and is engaged only in a collecting and cataloguing of the references sent and published at a forum by our readers. If you are the legal owner of any submitted material and do not wish that the reference to it was in our catalogue, contact us and we shall immediately remove her. Files for an exchange on tracker are given by users of a site, and the administration does not bear the responsibility for their maintenance. The request to not fill in the files protected by copyrights, and also files of the illegal maintenance!