Князь тьмы / Prince of Darkness (Джон Карпентер / John Carpenter) [1987, США, ужасы, BDRip-AVC] 2xMVO (CP Digital, OРТ) + DVO (Рен-ТВ) + 2xAVO (Визгунов, Дохалов) + Original (English) + Subs (Rus, Eng)

DL-List and Torrent activity
Size:  4.13 GB   |    Registered:  2 years 10 months   |    Completed:  16 times
Seeders:  3   Leechers:  1   Show peers in full details
 
   
 
 

Max Levien ®

Longevity:
2 years 10 months
Posts:
20374

[Quote] 

Князь тьмы / Prince of Darkness«Before man walked the earth...it slept for centuries. It is evil. It is real. It is awakening»- Страна: США
Жанр: ужасы
Год выпуска: 1987
Продолжительность: 01:41:38-Перевод №1: Профессиональный (многоголосый закадровый) - CP Digital
Перевод №2: Профессиональный (многоголосый закадровый) - OРТ
Перевод №3: Профессиональный (двухголосый закадровый) - Рен-ТВ - отдельно в раздаче
Перевод №4: Авторский (одноголосый закадровый) - Визгунов - отдельно в раздаче
Перевод №5: Авторский (одноголосый закадровый) - Дохалов - отдельно в раздаче
Оригинальная аудиодорожка: English
Субтитры: Русские (полные), English (full)
Навигация по главам: присутствует - 12 глав-Режиссер: Джон Карпентер / John Carpenter
В ролях: Дональд Плезенс, Джеймисон Паркер, Виктор Вонг, Лиза Блаунт, Деннис Дун, Сьюзэн Блэнчард, Энн Мари Ховард, Энн Йен, Кен Райт, Дирк Блокер-Описание: Группа ученых-исследователей во время изучения заброшенной церкви находит необычный сосуд. С помощью рентгеновских лучей им удается определить, что сосуду около 7 миллионов лет и, что самое интересное, его можно открыть только изнутри. В нем находится некая непонятная субстанция: жидкий алмаз, созданный какой-то таинственной силой.
В древней рукописи говорится, что в этом алмазе покоится сам Сатана или его дух. В результате экспериментов дьявольская сила, высвободившись из сосуда и рассеявшись в пространстве, начинает вселяться в исследователей, превращая их в рабов Сатаны.-
Download sample-Качество видео: BDRip-AVC | исх. BDRemux 1080p - thx: Тарантиныч
Формат: MKV-Видео: 1 120x476 (2.35:1), 23.976 fps, H.264 ~3734 kbps avg, 0.277 bit/pixel
Аудио №1: 48.0 kHz, AC3 Dolby Digital, 3/2 (L,C,R,l,r) + LFE ch, ~448 kbps | Профессиональный (многоголосый закадровый) - CP Digital
Аудио №2: 48.0 kHz, AC3 Dolby Digital, 2/0 (L,R) ch, ~192.00 kbps avg | Профессиональный (многоголосый закадровый) - OРТ
Аудио №3: 48.0 kHz, AC3 Dolby Digital, 2/0 (L,R) ch, ~192.00 kbps avg | Профессиональный (двухголосый закадровый) - Рен-ТВ - отдельно в раздаче
Аудио №4: 48.0 kHz, AC3 Dolby Digital, 3/2 (L,C,R,l,r) + LFE ch, ~448 kbps | Авторский (одноголосый закадровый) - Визгунов - отдельно в раздаче
Аудио №5: 48.0 kHz, AC3 Dolby Digital, 3/2 (L,C,R,l,r) + LFE ch, ~448 kbps | Авторский (одноголосый закадровый) - Дохалов - отдельно в раздаче
Аудио №6: 48.0 kHz, AC3 Dolby Digital, 3/2 (L,C,R,l,r) + LFE ch, ~448 kbps | English-

MediaInfo

General
Unique ID : 210702052380020672923603641401757763361 (0x9E83BD3C5BDD9F77AEA242E6F9098721)
Complete name : D:\Фильмы\Рипы\Prince of Darkness.1987.BDRip-AVC.eFK tRuAVC\Prince of Darkness.1987.BDRip-AVC.eFK tRuAVC.mkv
Format : Matroska
Format version : Version 4 / Version 2
File size : 3.36 GiB
Duration : 1h 41mn
Overall bit rate : 4 728 Kbps
Movie name : Князь тьмы / Prince of Darkness (1987) - Release for erzsebet
Encoded date : UTC 2014-10-02 17:26:27
Writing application : mkvmerge v7.2.0 ('On Every Street') 64bit built on Sep 13 2014 15:52:10
Writing library : libebml v1.3.0 + libmatroska v1.4.1
DURATION : 01:41:37.088000000
NUMBER_OF_FRAMES : 190534
NUMBER_OF_BYTES : 341436928
_STATISTICS_WRITING_APP : mkvmerge v7.2.0 ('On Every Street') 64bit built on Sep 13 2014 15:52:10
_STATISTICS_WRITING_DATE_UTC : 2014-10-02 17:26:27
_STATISTICS_TAGS : BPS DURATION NUMBER_OF_FRAMES NUMBER_OF_BYTES
Attachment : Yes
Video
ID : 1
Format : AVC
Format/Info : Advanced Video Codec
Format profile : [email protected]
Format settings, CABAC : Yes
Format settings, ReFrames : 14 frames
Codec ID : V_MPEG4/ISO/AVC
Duration : 1h 41mn
Bit rate : 3 546 Kbps
Width : 1 120 pixels
Height : 476 pixels
Display aspect ratio : 2.35:1
Frame rate mode : Constant
Frame rate : 23.976 fps
Color space : YUV
Chroma subsampling : 4:2:0
Bit depth : 8 bits
Scan type : Progressive
Bits/(Pixel*Frame) : 0.277
Stream size : 2.52 GiB (75%)
Title : eFK tRuAVC
Writing library : x264 core 142 r2479kMod dd79a61
Encoding settings : cabac=1 / ref=14 / deblock=1:-3:-2 / analyse=0x3:0x133 / me=umh / subme=11 / psy=1 / fade_compensate=0.00 / psy_rd=0.95:0.00 / mixed_ref=1 / me_range=48 / chroma_me=1 / trellis=2 / 8x8dct=1 / cqm=0 / deadzone=21,11 / fast_pskip=0 / chroma_qp_offset=-2 / threads=12 / lookahead_threads=3 / sliced_threads=0 / nr=0 / decimate=1 / interlaced=0 / bluray_compat=0 / constrained_intra=0 / fgo=0 / bframes=16 / b_pyramid=2 / b_adapt=2 / b_bias=0 / direct=3 / weightb=1 / open_gop=0 / weightp=2 / keyint=250 / keyint_min=23 / scenecut=40 / intra_refresh=0 / rc_lookahead=60 / rc=crf / mbtree=0 / crf=19.2000 / qcomp=0.70 / qpmin=0 / qpmax=69 / qpstep=4 / vbv_maxrate=50000 / vbv_bufsize=62500 / crf_max=0.0 / nal_hrd=none / filler=0 / ip_ratio=1.40 / pb_ratio=1.30 / aq=3:0.90
Language : English
Default : Yes
Forced : No
Color primaries : BT.709
Transfer characteristics : BT.709
Matrix coefficients : BT.709
DURATION : 01:39:20.413000000
NUMBER_OF_FRAMES : 142907
NUMBER_OF_BYTES : 2782713675
_STATISTICS_WRITING_APP : mkvmerge v7.2.0 ('On Every Street') 64bit built on Sep 13 2014 15:52:10
_STATISTICS_WRITING_DATE_UTC : 2014-10-02 17:26:27
_STATISTICS_TAGS : BPS DURATION NUMBER_OF_FRAMES NUMBER_OF_BYTES
Audio #1
ID : 2
Format : AC-3
Format/Info : Audio Coding 3
Mode extension : CM (complete main)
Format settings, Endianness : Big
Codec ID : A_AC3
Duration : 1h 41mn
Bit rate mode : Constant
Bit rate : 448 Kbps
Channel count : 6 channels
Channel positions : Front: L C R, Side: L R, LFE
Sampling rate : 48.0 KHz
Bit depth : 16 bits
Compression mode : Lossy
Stream size : 326 MiB (9%)
Title : MVO [CP Digital]
Language : Russian
Default : Yes
Forced : No
Audio #2
ID : 3
Format : AC-3
Format/Info : Audio Coding 3
Mode extension : CM (complete main)
Format settings, Endianness : Big
Codec ID : A_AC3
Duration : 1h 41mn
Bit rate mode : Constant
Bit rate : 192 Kbps
Channel count : 2 channels
Channel positions : Front: L R
Sampling rate : 48.0 KHz
Bit depth : 16 bits
Compression mode : Lossy
Stream size : 140 MiB (4%)
Title : MVO [OРТ]
Language : Russian
Default : No
Forced : No
Audio #3
ID : 4
Format : AC-3
Format/Info : Audio Coding 3
Mode extension : CM (complete main)
Format settings, Endianness : Big
Codec ID : A_AC3
Duration : 1h 41mn
Bit rate mode : Constant
Bit rate : 448 Kbps
Channel count : 6 channels
Channel positions : Front: L C R, Side: L R, LFE
Sampling rate : 48.0 KHz
Bit depth : 16 bits
Compression mode : Lossy
Stream size : 326 MiB (9%)
Language : English
Default : No
Forced : No
Text #1
ID : 5
Format : UTF-8
Codec ID : S_TEXT/UTF8
Codec ID/Info : UTF-8 Plain Text
Title : full
Language : Russian
Default : No
Forced : No
Text #2
ID : 6
Format : UTF-8
Codec ID : S_TEXT/UTF8
Codec ID/Info : UTF-8 Plain Text
Title : full
Language : English
Default : No
Forced : No
Menu
00:00:00.000 : en:Chapter 1
00:10:27.627 : en:Chapter 2
00:18:34.113 : en:Chapter 3
00:25:00.123 : en:Chapter 4
00:33:07.610 : en:Chapter 5
00:40:40.438 : en:Chapter 6
00:47:54.079 : en:Chapter 7
00:55:27.949 : en:Chapter 8
01:02:02.343 : en:Chapter 9
01:09:38.799 : en:Chapter 10
01:17:06.622 : en:Chapter 11
01:24:24.059 : en:Chapter 12

x264 log

x264 [info]: frame I:894 Avg QP:16.31 size: 71734
x264 [info]: frame P:24744 Avg QP:17.90 size: 34915
x264 [info]: frame B:117269 Avg QP:20.31 size: 15815
x264 [info]: consecutive B-frames: 0.9% 0.7% 2.6% 8.7% 12.5% 50.2% 8.7% 3.0% 4.5% 1.7% 1.8% 1.5% 0.9% 0.6% 0.7% 0.4% 0.5%
x264 [info]: mb I I16..4: 4.6% 81.5% 13.9%
x264 [info]: mb P I16..4: 0.4% 14.6% 1.0% P16..4: 28.7% 36.0% 15.4% 1.7% 0.1% skip: 2.3%
x264 [info]: mb B I16..4: 0.1% 2.2% 0.1% B16..8: 38.1% 21.3% 4.8% direct: 8.8% skip:24.7% L0:47.3% L1:41.8% BI:10.9%
x264 [info]: 8x8 transform intra:91.2% inter:53.6%
x264 [info]: direct mvs spatial:100.0% temporal:0.0%
x264 [info]: coded y,uvDC,uvAC intra: 93.1% 76.0% 42.3% inter: 37.0% 27.7% 0.7%
x264 [info]: i16 v,h,dc,p: 45% 16% 14% 25%
x264 [info]: i8 v,h,dc,ddl,ddr,vr,hd,vl,hu: 9% 6% 15% 11% 13% 13% 11% 12% 11%
x264 [info]: i4 v,h,dc,ddl,ddr,vr,hd,vl,hu: 11% 6% 8% 10% 15% 15% 12% 12% 12%
x264 [info]: i8c dc,h,v,p: 35% 29% 21% 14%
x264 [info]: Weighted P-Frames: Y:6.5% UV:3.6%
x264 [info]: ref P L0: 34.1% 7.8% 18.2% 7.9% 7.1% 5.2% 4.9% 2.7% 2.6% 2.1% 2.1% 1.8% 1.8% 1.6% 0.1% 0.0%
x264 [info]: ref B L0: 56.6% 14.1% 8.3% 4.8% 3.7% 3.2% 2.7% 1.7% 1.5% 1.3% 1.2% 0.7% 0.3%
x264 [info]: ref B L1: 89.1% 10.9%
x264 [info]: kb/s:3734.93
x264 [total]: encoded 142907 frames, 7.02 fps, 3734.93 kb/s, duration 5:39:31.40

Comparison

Source

Encode
Цитата:
  • За Визгунова и Дохалова спасибо delo2006
  • Спасибо Werewolf77 за ОРТ и РЕН ТВ. За синхронизацию звука благодарность JUSTKANT

If your ratio falls below 0.3, you will not be able to download Torrents! More about the rating.

[erzsebet.pl].t48887.torrent
Torrent: Registered   [ 2017-12-10 22:03 ]

Download .torrent

Download

11 KB

Status: checked
Completed: 16 times
Size: 4.13 GB
terms.php

#1

10-Dec-2017 22:02

[Profile]  [PM] 
Display posts:    

You cannot post new topics in this forum
You cannot reply to topics in this forum
You cannot edit your posts in this forum
You cannot delete your posts in this forum
You cannot vote in polls in this forum
You cannot attach files in this forum
You can download files in this forum
User agreement
For copyright holders
Advertise on this site

Скачайте на халяву через торрент на трекере erzsebet.pl

!ATTENTION!
The site does not give electronic versions of products, and is engaged only in a collecting and cataloguing of the references sent and published at a forum by our readers. If you are the legal owner of any submitted material and do not wish that the reference to it was in our catalogue, contact us and we shall immediately remove her. Files for an exchange on tracker are given by users of a site, and the administration does not bear the responsibility for their maintenance. The request to not fill in the files protected by copyrights, and also files of the illegal maintenance!