Красные монахи / Кровавые монахи / Тайны красных монахов / I frati rossi / The Red Monks (Джанни Мартуччи / Gianni Martucci) [1988, Италия, ужасы, DVDRip] AVO (Кузнецов)

DL-List and Torrent activity
Size:  1.41 GB   |    Registered:  2 years 10 months   |    Completed:  16 times
Seeders:  2  
 
   
 
 

Max Levien ®

Longevity:
2 years 10 months
Posts:
20374

[Quote] 

Красные монахи / Кровавые монахи / Тайны красных монахов / I frati rossi / The Red Monks
Год выпуска: 1988
Страна: Италия
Жанр: ужасы
Продолжительность: 01:25:12
Перевод: Авторский (одноголосый закадровый) - Сергей Кузнецов
Субтитры: нет
Режиссер: Джанни Мартуччи / Gianni Martucci
В ролях: Жерардо Амато (Robert Garlini), Лара Вендел (Ramona Curtis), Мализа Лонго (Pricilla), Чак Валенти (Ben), Клаудио Пачифико (Lodoricio, the Lord), Мэри Максвелл (Lucille), Гаэтано Руссо (Richard Garlini), Кэролин Де Фонсека (Ramona Curtis), Люка Интоппа (Adept), Сьюзен Спэффорд (Pricilla)-Мировая премьера: 1988-Описание: Молодая девушка после свадьбы переезжает жить в старое поместье супруга. Но девушке с каждым днем не нравится этот странный дом. Она замечает, как муж часто покидает их спальню по ночам и спускается в подвал. Постепенно девушка узнает о тайнах прошлого своего мужа, о его связи с культом «Красных монахов»…-Исходник видео: из -Огромная благодарность:
SuperDVD01 - собственная запись Кузнецова с какого-то украинского телеканала через рекордер.
JUSTKANT - синхронизация перевода.-Данный фильм вместе с русским переводлм на трекере появляется впервые!-
Рейтинг

MPAA: R - Лицам до 17 лет обязательно присутствие взрослого.-Качество видео: DVDRip
Формат видео: AVI -> //Сэмпл//
Видео: XviD, 720x544 (4:3), 23.976 fps, 2167 kbps avg
Аудио:
1 - 48 khz, AC3 Dolby Digital, 2/0 (L,R) ch, ~192 kbps [Кузнецов] TVRip

MediaInfo

General
Complete name : I:\Торрент Файлы\Будущие Релизы на Трекере\1.35 - 1.46 и более гб\Красные монахи (Кузнецов).avi
Format : AVI
Format/Info : Audio Video Interleave
File size : 1.41 GiB
Duration : 1h 25mn
Overall bit rate : 2 368 Kbps
Writing application : VirtualDubMod 1.5.10.3 | www.virtualdub-fr.org || (build 2550/release)
Writing library : VirtualDubMod build 2550/release
Video
ID : 0
Format : MPEG-4 Visual
Format profile : Advanced [email protected]
Format settings, BVOP : 1
Format settings, QPel : No
Format settings, GMC : No warppoints
Format settings, Matrix : Custom
Codec ID : XVID
Codec ID/Hint : XviD
Duration : 1h 25mn
Bit rate : 2 167 Kbps
Width : 720 pixels
Height : 544 pixels
Display aspect ratio : 4:3
Frame rate : 23.976 (23976/1000) fps
Color space : YUV
Chroma subsampling : 4:2:0
Bit depth : 8 bits
Scan type : Progressive
Compression mode : Lossy
Bits/(Pixel*Frame) : 0.231
Stream size : 1.29 GiB (91%)
Writing library : XviD 1.2.1 (UTC 2008-12-04)
Audio
ID : 1
Format : AC-3
Format/Info : Audio Coding 3
Mode extension : CM (complete main)
Format settings, Endianness : Big
Codec ID : 2000
Duration : 1h 25mn
Bit rate mode : Constant
Bit rate : 192 Kbps
Channel(s) : 2 channels
Channel positions : Front: L R
Sampling rate : 48.0 KHz
Frame rate : 31.250 fps (1536 spf)
Compression mode : Lossy
Stream size : 117 MiB (8%)
Alignment : Split accross interleaves
Interleave, duration : 42 ms (1.00 video frame)
Interleave, preload duratio : 500 ms
Title : Сергей Кузнецов

Скриншот c названием фильма

Скриншоты

If your ratio falls below 0.3, you will not be able to download Torrents! More about the rating.

[erzsebet.pl].t48888.torrent
Torrent: Registered   [ 2017-12-10 22:03 ]

Download .torrent

Download

15 KB

Status: checked
Completed: 16 times
Size: 1.41 GB
terms.php

#1

10-Dec-2017 22:02

[Profile]  [PM] 
Display posts:    

You cannot post new topics in this forum
You cannot reply to topics in this forum
You cannot edit your posts in this forum
You cannot delete your posts in this forum
You cannot vote in polls in this forum
You cannot attach files in this forum
You can download files in this forum
User agreement
For copyright holders
Advertise on this site

Скачайте на халяву через торрент на трекере erzsebet.pl

!ATTENTION!
The site does not give electronic versions of products, and is engaged only in a collecting and cataloguing of the references sent and published at a forum by our readers. If you are the legal owner of any submitted material and do not wish that the reference to it was in our catalogue, contact us and we shall immediately remove her. Files for an exchange on tracker are given by users of a site, and the administration does not bear the responsibility for their maintenance. The request to not fill in the files protected by copyrights, and also files of the illegal maintenance!