Дело века / Сделка века / Deal Of The Century (Уильям Фридкин / William Friedkin) [1983, США, комедия, криминал, DVDRip] AVO (Александр Марченко)

DL-List and Torrent activity
Size:  1.4 GB   |    Registered:  2 years 10 months   |    Completed:  16 times
Seeders:  2  
 
   
 
 

Max Levien ®

Longevity:
2 years 10 months
Posts:
20374

[Quote] 

Дело века / Сделка века / Deal Of The Century
Страна: США
Жанр: комедия, криминал
Год выпуска: 1983
Продолжительность: 01:38:57
Перевод: Авторский (одноголосый закадровый) Александр Марченко
Субтитры: нет
Режиссер: Уильям Фридкин / William Friedkin
В ролях: Чеви Чейз, Сигурни Уивер, Грегори Хайнс, Винс Эдвардс, Уильям Маркес, Эдуардо Рикард, Ричард Херд, Грэм Джарвис, Уоллес Шоун, Рэнди Брукс
Описание: Эдди Манц давно занимается торговлей оружием и считает себя непревзойденным специалистом в этой области. По делам «службы» объездил почти весь мир. Теперь судьба закинула его в южноамериканскую страну Сан-Мигель. И там ему крупно повезло: удалось провернуть грандиозную сделку — продать диктатору Барбозе партию новейших беспилотных боевых самолетов «Миротворец». Контракт на 300 миллионов долларов! Правда, самолет не прошел еще испытаний, но так уж получилось. Ведь ради комиссионных в 2 миллиона стоит рискнуть и расстаться с некоторым количеством нервных клеток.
Доп. информация: Рип с СГ. Дорожка позаимствована у alenavova
Качество видео: DVDRip
Формат видео: AVI
Видео: 720x400 (1.80:1), 23.976 fps, XviD MPEG-4 ~1827 kbps avg, 0.26 bit/pixel
Аудио: 48 kHz, AC3 Dolby Digital, 2/0 (L,R) ch, ~192 kbps

MediaInfo

Дело века - Deal of the Century [by Edich2].avi
Format : AVI
Format/Info : Audio Video Interleave
File size : 1.40 GiB
Duration : 1h 38mn
Overall bit rate : 2 028 Kbps
Video
ID : 0
Format : MPEG-4 Visual
Format profile : Advanced [email protected]
Format settings, BVOP : 1
Format settings, QPel : No
Format settings, GMC : No warppoints
Format settings, Matrix : Default (H.263)
Codec ID : XVID
Codec ID/Hint : XviD
Duration : 1h 38mn
Bit rate : 1 827 Kbps
Width : 720 pixels
Height : 400 pixels
Display aspect ratio : 16:9
Frame rate : 23.976 fps
Color space : YUV
Chroma subsampling : 4:2:0
Bit depth : 8 bits
Scan type : Progressive
Compression mode : Lossy
Bits/(Pixel*Frame) : 0.265
Stream size : 1.26 GiB (90%)
Writing library : XviD 1.2.1 (UTC 2008-12-04)
Audio
ID : 1
Format : AC-3
Format/Info : Audio Coding 3
Mode extension : CM (complete main)
Format settings, Endianness : Big
Codec ID : 2000
Duration : 1h 38mn
Bit rate mode : Constant
Bit rate : 192 Kbps
Channel count : 2 channels
Channel positions : Front: L R
Sampling rate : 48.0 KHz
Bit depth : 16 bits
Compression mode : Lossy
Stream size : 136 MiB (9%)
Alignment : Split accross interleaves
Interleave, duration : 42 ms (1.00 video frame)
Interleave, preload duration : 500 ms

Скриншоты


If your ratio falls below 0.3, you will not be able to download Torrents! More about the rating.

[erzsebet.pl].t48889.torrent
Torrent: Registered   [ 2017-12-10 22:03 ]

Download .torrent

Download

14 KB

Status: checked
Completed: 16 times
Size: 1.4 GB
terms.php

#1

10-Dec-2017 22:02

[Profile]  [PM] 
Display posts:    

You cannot post new topics in this forum
You cannot reply to topics in this forum
You cannot edit your posts in this forum
You cannot delete your posts in this forum
You cannot vote in polls in this forum
You cannot attach files in this forum
You can download files in this forum
User agreement
For copyright holders
Advertise on this site

Скачайте на халяву через торрент на трекере erzsebet.pl

!ATTENTION!
The site does not give electronic versions of products, and is engaged only in a collecting and cataloguing of the references sent and published at a forum by our readers. If you are the legal owner of any submitted material and do not wish that the reference to it was in our catalogue, contact us and we shall immediately remove her. Files for an exchange on tracker are given by users of a site, and the administration does not bear the responsibility for their maintenance. The request to not fill in the files protected by copyrights, and also files of the illegal maintenance!