Джекилл и Хайд... Снова вместе / Jekyll and Hyde... Together Again (Джерри Белсон / Jerry Belson) [1982, США, комедия, фантастика, DVDRip] VO

DL-List and Torrent activity
Size:  745 MB   |    Registered:  2 years 10 months   |    Completed:  16 times
Seeders:  2  
 
   
 
 

Max Levien ®

Longevity:
2 years 10 months
Posts:
20374

[Quote] 

Джекилл и Хайд... Снова вместе /
Jekyll and Hyde... Together Again
-
Страна: США
Жанр: комедия, фантастика
Год выпуска: 1982
Продолжительность: 01:26:52
Перевод: Одноголосый закадровый (инфо о переводе tornado, TornadoArt)
Субтитры: нет-Режиссер: Джерри Белсон / Jerry Belson
В ролях: Марк Блэнкфилд, Бесс Армстронг, Криста Эрриксон, Тим Томерсон, Майкл МакГуайр, Нил Хант, Кассандра Петерсон, Джесика Нельсон, Питер Брокко, Майкл Клингер-Описание: Гениальный хирург Дэниел Джекилл покидает хирургию, несмотря на многочисленные просьбы остаться, чтобы заниматься исследовательской работой. Он пытается изобрести лекарство, которое может обострять в человеке животные инстинкты. Однажды заснув от усталости в своей лаборатории, доктор Джекилл случайно вдыхает экспериментальное лекарство, которое превращает его в сексуально ненасытного свингера…-Доп. информация: Озвучка отсюда - http://erzsebet.org/forum/viewtopic.php?t=4065864, спасибо tornado22k
Реклама ресурса убрана.-Качество видео: DVDRip
Формат видео: AVI
Видео: XviD, 624x352, 23.976 fps, 1061 Kbps
Аудио: MPEG Layer 3, 48 kHz, 2 ch, 128.00 kbps-
-

Резервные скриншоты


MediaInfo

Код:Format : AVI
Format/Info : Audio Video Interleave
File size : 745 MiB
Duration : 1h 26mn
Overall bit rate : 1 200 Kbps
Writing application : VirtualDubMod 1.5.10.2 (build 2540/release)
Writing library : VirtualDubMod build 2540/release
Video
ID : 0
Format : MPEG-4 Visual
Format profile : Advanced [email protected]
Format settings, BVOP : 1
Format settings, QPel : No
Format settings, GMC : No warppoints
Format settings, Matrix : Custom
Codec ID : XVID
Codec ID/Hint : XviD
Duration : 1h 26mn
Bit rate : 1 062 Kbps
Width : 624 pixels
Height : 352 pixels
Display aspect ratio : 16:9
Frame rate : 23.976 fps
Color space : YUV
Chroma subsampling : 4:2:0
Bit depth : 8 bits
Scan type : Progressive
Compression mode : Lossy
Bits/(Pixel*Frame) : 0.202
Stream size : 660 MiB (89%)
Writing library : XviD 65
Audio
ID : 1
Format : MPEG Audio
Format version : Version 1
Format profile : Layer 3
Mode : Joint stereo
Mode extension : MS Stereo
Codec ID : 55
Codec ID/Hint : MP3
Duration : 1h 26mn
Bit rate mode : Constant
Bit rate : 128 Kbps
Channel(s) : 2 channels
Sampling rate : 48.0 KHz
Compression mode : Lossy
Stream size : 79.5 MiB (11%)
Alignment : Aligned on interleaves
Interleave, duration : 42 ms (1.00 video frame)
Interleave, preload duration : 504 ms
-

If your ratio falls below 0.3, you will not be able to download Torrents! More about the rating.

[erzsebet.pl].t48891.torrent
Torrent: Registered   [ 2017-12-10 22:03 ]

Download .torrent

Download

15 KB

Status: checked
Completed: 16 times
Size: 745 MB
terms.php

#1

10-Dec-2017 22:02

[Profile]  [PM] 
Display posts:    

You cannot post new topics in this forum
You cannot reply to topics in this forum
You cannot edit your posts in this forum
You cannot delete your posts in this forum
You cannot vote in polls in this forum
You cannot attach files in this forum
You can download files in this forum
User agreement
For copyright holders
Advertise on this site

Скачайте на халяву через торрент на трекере erzsebet.pl

!ATTENTION!
The site does not give electronic versions of products, and is engaged only in a collecting and cataloguing of the references sent and published at a forum by our readers. If you are the legal owner of any submitted material and do not wish that the reference to it was in our catalogue, contact us and we shall immediately remove her. Files for an exchange on tracker are given by users of a site, and the administration does not bear the responsibility for their maintenance. The request to not fill in the files protected by copyrights, and also files of the illegal maintenance!