Джекилл и Хайд... Снова вместе / Jekyll and Hyde... Together Again (Джерри Белсон / Jerry Belson) [1982, США, Комедия, фантастика, BDRip] DVO

DL-List and Torrent activity
Size:  1.46 GB   |    Registered:  2 years 10 months   |    Completed:  16 times
Seeders:  2  
 
   
 
 

Max Levien ®

Longevity:
2 years 10 months
Posts:
20374

[Quote] 

Джекилл и Хайд... Снова вместе / Jekyll and Hyde... Together Again«The comedy that examines modern living through chemistry»- Страна: США
Жанр: Комедия, фантастика
Год выпуска: 1982
Продолжительность: 01:26:53-Перевод: Профессиональный (двухголосый закадровый) ["СВ-КАДР"]
Субтитры: нет-Режиссер: Джерри Белсон / Jerry Belson-В ролях: Марк Блэнкфилд, Бесс Армстронг, Криста Эрриксон, Тим Томерсон, Майкл МакГуайр, Нил Хант, Кассандра Петерсон, Джесика Нельсон, Питер Брокко, Майкл Клингер-Описание: Гениальный хирург Дэниел Джекилл покидает хирургию, несмотря на многочисленные просьбы остаться, чтобы заниматься исследовательской работой. Он пытается изобрести лекарство, которое может обострять в человеке животные инстинкты. Однажды заснув от усталости в своей лаборатории, доктор Джекилл случайно вдыхает экспериментальное лекарство, которое превращает его в сексуально ненасытного свингера…-Сэмпл | IMDB | КиноПоиск-Качество видео: BDRip [исх. BDRemux 1080p спасибо Pigy]
Формат видео: AVI
-Видео: 704x400 (1.76:1), 23.976 fps, XviD build 50, 2207 kbps avg, 0.33 bit/pixel
Аудио: 48 kHz, AC3 Dolby Digital, 2/0 (L,R) ch, 192.00 kbps avg [Russian_DVO]-Релиз группы: -

MediaInfo

General
Complete name : D:\Мои релизы\Jekyll and Hyde Together Again_BDRip_RG_All_Films.avi
Format : AVI
Format/Info : Audio Video Interleave
File size : 1.46 GiB
Duration : 1h 26mn
Overall bit rate : 2 409 Kbps
Writing application : VirtualDubMod 1.5.10.3 | www.virtualdub-fr.org || (build 2550/release)
Writing library : VirtualDubMod build 2550/release
Video
ID : 0
Format : MPEG-4 Visual
Format profile : Advanced [email protected]
Format settings, BVOP : Yes
Format settings, QPel : No
Format settings, GMC : No warppoints
Format settings, Matrix : Custom
Codec ID : XVID
Codec ID/Hint : XviD
Duration : 1h 26mn
Bit rate : 2 208 Kbps
Width : 704 pixels
Height : 400 pixels
Display aspect ratio : 16:9
Frame rate : 23.976 fps
Color space : YUV
Chroma subsampling : 4:2:0
Bit depth : 8 bits
Scan type : Progressive
Compression mode : Lossy
Bits/(Pixel*Frame) : 0.327
Stream size : 1.34 GiB (92%)
Writing library : XviD 1.2.1 (UTC 2008-12-04)
Audio
ID : 1
Format : AC-3
Format/Info : Audio Coding 3
Mode extension : CM (complete main)
Codec ID : 2000
Duration : 1h 26mn
Bit rate mode : Constant
Bit rate : 192 Kbps
Channel(s) : 2 channels
Channel positions : Front: L R
Sampling rate : 48.0 KHz
Bit depth : 16 bits
Compression mode : Lossy
Stream size : 119 MiB (8%)
Alignment : Split accross interleaves
Interleave, duration : 42 ms (1.00 video frame)
Interleave, preload duration : 500 ms

Скриншоты

-Торрент-файл перезалит 13.05.2016 по причине улучшения качества рипа: DVDRip BDRip,а также замены любит VOпроф DVO

If your ratio falls below 0.3, you will not be able to download Torrents! More about the rating.

[erzsebet.pl].t48892.torrent
Torrent: Registered   [ 2017-12-10 22:03 ]

Download .torrent

Download

15 KB

Status: checked
Completed: 16 times
Size: 1.46 GB
terms.php

#1

10-Dec-2017 22:02

[Profile]  [PM] 
Display posts:    

You cannot post new topics in this forum
You cannot reply to topics in this forum
You cannot edit your posts in this forum
You cannot delete your posts in this forum
You cannot vote in polls in this forum
You cannot attach files in this forum
You can download files in this forum
User agreement
For copyright holders
Advertise on this site

Скачайте на халяву через торрент на трекере erzsebet.pl

!ATTENTION!
The site does not give electronic versions of products, and is engaged only in a collecting and cataloguing of the references sent and published at a forum by our readers. If you are the legal owner of any submitted material and do not wish that the reference to it was in our catalogue, contact us and we shall immediately remove her. Files for an exchange on tracker are given by users of a site, and the administration does not bear the responsibility for their maintenance. The request to not fill in the files protected by copyrights, and also files of the illegal maintenance!