Пираты / Pirates (Роман Полански / Roman Polanski) [1986, Франция, Тунис, комедия, приключения, HDRip] AVO (Юрий Живов) + Original Eng

DL-List and Torrent activity
Size:  2.16 GB   |    Registered:  2 years 10 months   |    Completed:  16 times
Seeders:  3  
 
   
 
 

Max Levien ®

Longevity:
2 years 10 months
Posts:
20374

[Quote] 

Пираты / Pirates
Страна: Франция, Тунис
Жанр: комедия, приключения
Год выпуска: 1986
Продолжительность: 02:01:19
Перевод: Авторский (одноголосый закадровый) Юрий Живов
Субтитры: нет
Оригинальная аудиодорожка: английский
Режиссер: Роман Полански / Roman Polanski
В ролях: Уолтер Мэттау, Крис Кампьон, Дэмиен Томас, Олу Джейкобс, Ферди Мэйн, Дэвид Келли, Тони Пек, Энтони Доусон, Ришар Дьё, Жак Мори
Описание: Два пирата: старый морской волк Рэд и юнга Жан-Батист по прозвищу Лягушонок оказались на плоту посреди океана. Их подбирает испанский корабль, на борту которого находится сокровище — золотой трон вождя. Пираты не могут упустить редкий случай разбогатеть, и конечно же, подбивают команду к бунту.
Не обошлось и без любви: молодой Жан-Батист влюбляется в случайно оказавшуюся на борту племянницу испанского губернатора.
Доп. информация: Дорожка с Ю. Живовым ремастирована, синхронизирована и наложена ale_x2008 при помощи Adobe Audition, iZotope RX2, Sony Vegas и VirtualDubMod
За оцифрованную с VHS дорожку благодарим - sera1

Видеоряд отсюда http://erzsebet.org/forum/viewtopic.php?t=1760589
Сэмпл: https://yadi.sk/i/5TYNXbUWgfdYT
Качество видео: HDRip
Формат видео: AVI
Видео: 720x304 (2.37:1), 23.976 fps, XviD build 50 ~2109 kbps avg, 0.40 bit/pixel
Аудио: 48 kHz, AC3 Dolby Digital, 2/0 (L,R) ch, ~192 kbps
Аудио 2: 48 kHz, AC3 Dolby Digital, 2/0 (L,R) ch, ~192 kbps eng

MediaInfo

Пираты - Pirates [by ale_x2008].avi
Format : AVI
Format/Info : Audio Video Interleave
Format profile : OpenDML
File size : 2.16 GiB
Duration : 2h 1mn
Overall bit rate : 2 544 Kbps
Movie name : Пираты / Pirates (1986)
Director : SENATOR (BDRip 720)
Writing application : VirtualDubMod 1.5.10.2 (build 2540/release)
Comment : 14.04.2009
Video
ID : 0
Format : MPEG-4 Visual
Format profile : Advanced [email protected]
Format settings, BVOP : 2
Format settings, QPel : No
Format settings, GMC : No warppoints
Format settings, Matrix : Default (MPEG)
Codec ID : XVID
Codec ID/Hint : XviD
Duration : 2h 1mn
Bit rate : 2 110 Kbps
Width : 720 pixels
Height : 304 pixels
Display aspect ratio : 2.35:1
Original display aspect ratio : 2.35:1
Frame rate : 23.976 fps
Color space : YUV
Chroma subsampling : 4:2:0
Bit depth : 8 bits
Scan type : Progressive
Compression mode : Lossy
Bits/(Pixel*Frame) : 0.402
Stream size : 1.79 GiB (83%)
Writing library : XviD 1.2.1 (UTC 2008-12-04)
Audio #1
ID : 1
Format : AC-3
Format/Info : Audio Coding 3
Mode extension : CM (complete main)
Format settings, Endianness : Big
Codec ID : 2000
Duration : 2h 1mn
Bit rate mode : Constant
Bit rate : 192 Kbps
Channel(s) : 2 channels
Channel positions : Front: L R
Sampling rate : 48.0 KHz
Bit depth : 16 bits
Compression mode : Lossy
Stream size : 167 MiB (8%)
Alignment : Split accross interleaves
Interleave, duration : 42 ms (1.00 video frame)
Interleave, preload duration : 500 ms
Audio #2
ID : 2
Format : AC-3
Format/Info : Audio Coding 3
Mode extension : CM (complete main)
Format settings, Endianness : Big
Codec ID : 2000
Duration : 2h 1mn
Bit rate mode : Constant
Bit rate : 224 Kbps
Channel(s) : 2 channels
Channel positions : Front: L R
Sampling rate : 48.0 KHz
Bit depth : 16 bits
Compression mode : Lossy
Stream size : 194 MiB (9%)
Alignment : Split accross interleaves
Interleave, duration : 42 ms (1.00 video frame)
Interleave, preload duration : 500 ms

Скриншоты

If your ratio falls below 0.3, you will not be able to download Torrents! More about the rating.

[erzsebet.pl].t48894.torrent
Torrent: Registered   [ 2017-12-10 22:03 ]

Download .torrent

Download

11 KB

Status: checked
Completed: 16 times
Size: 2.16 GB
terms.php

#1

10-Dec-2017 22:02

[Profile]  [PM] 
Display posts:    

You cannot post new topics in this forum
You cannot reply to topics in this forum
You cannot edit your posts in this forum
You cannot delete your posts in this forum
You cannot vote in polls in this forum
You cannot attach files in this forum
You can download files in this forum
User agreement
For copyright holders
Advertise on this site

Скачайте на халяву через торрент на трекере erzsebet.pl

!ATTENTION!
The site does not give electronic versions of products, and is engaged only in a collecting and cataloguing of the references sent and published at a forum by our readers. If you are the legal owner of any submitted material and do not wish that the reference to it was in our catalogue, contact us and we shall immediately remove her. Files for an exchange on tracker are given by users of a site, and the administration does not bear the responsibility for their maintenance. The request to not fill in the files protected by copyrights, and also files of the illegal maintenance!