Вальтер защищает Сараево / Valter brani Sarajevo (Хайрудин Крвавац / Hajrudin Krvavac) [1972, СФРЮ (Югославия), военный, боевик, DVDRip] DUB

DL-List and Torrent activity
Size:  656 MB   |    Registered:  2 years 10 months   |    Completed:  16 times
Seeders:  3  
 
   
 
 

Max Levien ®

Longevity:
2 years 10 months
Posts:
20374

[Quote] 

Вальтер защищает Сараево
(Valter brani Sarajevo)
- Страна: СФРЮ (Югославия)
Жанр: военный, боевик
Год выпуска: 1972
Продолжительность: 02:08:44
Перевод: Профессиональный (дублированный)
Субтитры: нет
Режиссер: Хайрудин Крвавац / Hajrudin KrvavacВ ролях: Бата Живойинович, Раде Маркович, Любиша Самарджич, Неда Спасоевич, Драгомир Боянич-Гидра, Слободан Димитреевич, Ханьо Хассе, Рольф Рёмер, Вильгельм Кох-Хооге, Павле Вуйисич, Фарук Беголи, Стево Жигон, Войо МиричОписание: Во время второй мировой войны гитлеровцам нужно было перебросить через Сараево горючее для своей отступающей танковой армии. Но партизанский отряд Вальтера наводит на них ужас. Для того чтобы покончить с партизанами и неуловимым деятелем югославского Сопротивления — никому не известным в лицо Вальтером, фашистами было сформировано специальное подразделение, которым в ряды патриотов внедрялись предатели, и даже создан свой немецкий "Вальтер"...
Доп. информация: Фильм дублирован на киностудии "Мосфильм"
Роли дублируют: А.Кузнецов, С.Яковлев, Е.Жариков, В.Балашов, В.Грачев, М.Глузский, Т.Литвиненко, С.Коновалова, Ю.Леонидов, А.Алексеев, Ю.Мартынов, В.Малышев, Н.Сморчков
Режиссер дубляжа: Е.Алексеев
Сэмпл (8.5Mb)
Качество видео: DVDRip
Формат видео: AVI
Видео: XviD, 640x400, 1.600:1, 25.000 fps, 613 kbps
Аудио: MPEG 1 Layer 3, 32 kHz, 96 kbps, 2 ch

Ссылки на данный фильм в различном качестве

DVD, с которого сделан рип
Рип размера 1,37Gb

MediaInfo

General
Complete name : F:\Movies\VALTER_1972\avi\Valter-muxed.avi
Format : AVI
Format/Info : Audio Video Interleave
Format profile : OpenDML
File size : 656 MiB
Duration : 2h 8mn
Overall bit rate : 712 Kbps
Writing application : AVI-Mux GUI 1.17.8.3, Feb 16 201019:42:50
Video
ID : 0
Format : MPEG-4 Visual
Format profile : Advanced [email protected]
Format settings, BVOP : Yes
Format settings, QPel : No
Format settings, GMC : No warppoints
Format settings, Matrix : Default (H.263)
Codec ID : XVID
Codec ID/Hint : XviD
Duration : 2h 8mn
Bit rate : 613 Kbps
Width : 640 pixels
Height : 400 pixels
Display aspect ratio : 1.600
Frame rate : 25.000 fps
Color space : YUV
Chroma subsampling : 4:2:0
Bit depth : 8 bits
Scan type : Progressive
Bits/(Pixel*Frame) : 0.096
Stream size : 564 MiB (86%)
Writing library : XviD 1.2.1 (UTC 2008-12-04)
Audio
ID : 1
Format : MPEG Audio
Format version : Version 1
Format profile : Layer 3
Mode : Joint stereo
Mode extension : MS Stereo
Codec ID : 55
Codec ID/Hint : MP3
Duration : 2h 8mn
Bit rate mode : Constant
Bit rate : 96.0 Kbps
Channel(s) : 2 channels
Sampling rate : 32.0 KHz
Stream size : 88.4 MiB (13%)
Alignment : Aligned on interleaves
Interleave, duration : 1002 ms (25.04 video frames)
Interleave, preload duration : 216 ms
Title : Valter T80 2_0ch 192Kbps DELAY 0ms
Writing library : LAME3.98r
Encoding settings : -m j -V 4 -q 2 -lowpass 15.1 -b 96

Обложка DVD

Скриншот c названием фильма

Скриншоты

If your ratio falls below 0.3, you will not be able to download Torrents! More about the rating.

[erzsebet.pl].t48896.torrent
Torrent: Registered   [ 2017-12-10 22:03 ]

Download .torrent

Download

7 KB

Status: checked
Completed: 16 times
Size: 656 MB
terms.php

#1

10-Dec-2017 22:02

[Profile]  [PM] 
Display posts:    

You cannot post new topics in this forum
You cannot reply to topics in this forum
You cannot edit your posts in this forum
You cannot delete your posts in this forum
You cannot vote in polls in this forum
You cannot attach files in this forum
You can download files in this forum
User agreement
For copyright holders
Advertise on this site

Скачайте на халяву через торрент на трекере erzsebet.pl

!ATTENTION!
The site does not give electronic versions of products, and is engaged only in a collecting and cataloguing of the references sent and published at a forum by our readers. If you are the legal owner of any submitted material and do not wish that the reference to it was in our catalogue, contact us and we shall immediately remove her. Files for an exchange on tracker are given by users of a site, and the administration does not bear the responsibility for their maintenance. The request to not fill in the files protected by copyrights, and also files of the illegal maintenance!