Последний полет Ноева ковчега / The Last Flight of Noah's Ark (Чарльз Джэррот / Charles Jarrott) [1980, США, приключения, семейный, DVDRip] VO + Sub Rus + Original Eng

DL-List and Torrent activity
Size:  1.26 GB   |    Registered:  2 years 10 months   |    Completed:  16 times
Seeders:  2  
 
   
 
 

Max Levien ®

Longevity:
2 years 10 months
Posts:
20374

[Quote] 

Последний полет Ноева ковчега / The Last Flight of Noah's Ark
Страна: США
Жанр: приключения, семейный
Год выпуска: 1980
Продолжительность: 01:37:00
Перевод: Одноголосый закадровый
Субтитры: русские
Оригинальная аудиодорожка: английский
Режиссер: Чарльз Джэррот / Charles Jarrott
В ролях: Эллиот Гулд, Женевьев Бюжо, Рик Шродер, Винсент Гардения, Тэмми Лорен, Джон Фудзиока, Юки Шимода, Джон П. Райан, Дэна Элкар, Рут Мэннинг
Описание: Когда Ноа Дуган соглашается лететь с миссией Бернаддет Лафлёр и ее грузом с животными на далекий остров, это только потому, что он бегает от пары букмекеров.
Никто из них не знает, что двое студентов мисс Лафлёр спрятались вместе с животными и что передающее радио мисс Дафлёр создало помехи панели управления самолета и они сбились с курса на многие мили. После вынужденной посадки на далеком острове Дуган, Бернадетт, Бобби и Джулии обнаруживают, что они не один. Вместе с двумя японскими солдатами, которые прибывали на острове со времен Второй мировой войны, они должны превратить самолет в мореходный корабль, если они когда-то хотят попасть домой.
Бобби и Джулии настаивают, что они не могут оставить зверей одних, и так переделанный самолет превращается во второй Ноев ковчег.
Доп. информация: Фильм взят отсюда http://erzsebet.org/forum/viewtopic.php?t=4430831
Сэмпл: http://multi-up.com/1057977
Качество видео: DVDRip
Формат видео: AVI
Видео: 720x544 (1.32:1), 25 fps, ~1588 kbps avg, 0.16 bit/pixel
Аудио 1: 48 kHz, MPEG Layer 3, 2 ch, ~160.00 kbps avg(Русский)
Аудио 2: 48 kHz, MPEG Layer 3, 2 ch, ~160.00 kbps avg(Английский)
Формат субтитров: hardsub (неотключаемые)
Доп. информация о субтитрах: Русские (ОМЕГА)

MediaInfo

Общее
Полное имя : F:\С моей озвучкой\Последний полет Ноева ковчега.avi
Формат : AVI
Формат/Информация : Audio Video Interleave
Размер файла : 1,26 Гбайт
Продолжительность : 1 ч. 33 м.
Общий поток : 1924 Кбит/сек
Программа кодирования : VirtualDubModRus 1.5.10.2 (build 2542/release)
Библиотека кодирования : VirtualDubMod build 2542/release
Видео
Идентификатор : 0
Формат : MPEG-4 Visual
Профиль формата : [email protected]
Параметр BVOP формата : Нет
Параметр QPel формата : Нет
Параметр GMC формата : Без точки перехода
Параметр матрицы формата : Default (H.263)
Идентификатор кодека : FMP4
Продолжительность : 1 ч. 33 м.
Битрейт : 1589 Кбит/сек
Ширина : 720 пикселей
Высота : 544 пикселя
Соотношение сторон : 4:3
Частота кадров : 25,000 кадров/сек
Цветовое пространство : YUV
Субдискретизация насыщенности : 4:2:0
Битовая глубина : 8 бит
Тип развёртки : Прогрессивная
Метод сжатия : С потерями
Бит/(Пиксели*Кадры) : 0.162
Размер потока : 1,04 Гбайт (83%)
Библиотека кодирования : Lavc52.88.0
Аудио #1
Идентификатор : 1
Формат : MPEG Audio
Версия формата : Version 1
Профиль формата : Layer 3
Режим : Joint stereo
Расширение режима : MS Stereo
Идентификатор кодека : 55
Идентификатор кодека/Подсказка : MP3
Продолжительность : 1 ч. 33 м.
Вид битрейта : Постоянный
Битрейт : 160 Кбит/сек
Каналы : 2 канала
Частота : 48,0 КГц
Метод сжатия : С потерями
Размер потока : 107 Мбайт (8%)
Выравнивание : Соединение по промежуткам
Продолжительность промежутка : 40 мс. (1,00 видеокадр)
Время предзагрузки промежутка : 504 мс.
Библиотека кодирования : LAME3.96
Аудио #2
Идентификатор : 2
Формат : MPEG Audio
Версия формата : Version 1
Профиль формата : Layer 3
Идентификатор кодека : 55
Идентификатор кодека/Подсказка : MP3
Продолжительность : 1 ч. 33 м.
Вид битрейта : Постоянный
Битрейт : 160 Кбит/сек
Каналы : 2 канала
Частота : 48,0 КГц
Метод сжатия : С потерями
Размер потока : 107 Мбайт (8%)
Выравнивание : Разделение по промежуткам
Продолжительность промежутка : 40 мс. (1,00 видеокадр)
Время предзагрузки промежутка : 500 мс.

Скриншоты

If your ratio falls below 0.3, you will not be able to download Torrents! More about the rating.

[erzsebet.pl].t48899.torrent
Torrent: Registered   [ 2017-12-10 22:03 ]

Download .torrent

Download

13 KB

Status: checked
Completed: 16 times
Size: 1.26 GB
terms.php

#1

10-Dec-2017 22:02

[Profile]  [PM] 
Display posts:    

You cannot post new topics in this forum
You cannot reply to topics in this forum
You cannot edit your posts in this forum
You cannot delete your posts in this forum
You cannot vote in polls in this forum
You cannot attach files in this forum
You can download files in this forum
User agreement
For copyright holders
Advertise on this site

Скачайте на халяву через торрент на трекере erzsebet.pl

!ATTENTION!
The site does not give electronic versions of products, and is engaged only in a collecting and cataloguing of the references sent and published at a forum by our readers. If you are the legal owner of any submitted material and do not wish that the reference to it was in our catalogue, contact us and we shall immediately remove her. Files for an exchange on tracker are given by users of a site, and the administration does not bear the responsibility for their maintenance. The request to not fill in the files protected by copyrights, and also files of the illegal maintenance!