Потерянный горизонт / Lost Horizon (Чарльз Джэррот / Charles Jarrott) [1973, США, фэнтези, мелодрама, драма, мюзикл, приключения, HDRip] MVO ("Культура")

DL-List and Torrent activity
Size:  1.46 GB   |    Registered:  2 years 10 months   |    Completed:  16 times
Seeders:  2  
 
   
 
 

Max Levien ®

Longevity:
2 years 10 months
Posts:
20374

[Quote] 

Потерянный горизонт / Lost Horizon
Страна: США
Жанр: фэнтези, мелодрама, драма, мюзикл, приключения
Год выпуска: 1973
Продолжительность: 02:29:29
Перевод: Профессиональный (многоголосый закадровый) "Культура"
Субтитры: нет
Режиссер: Чарльз Джэррот / Charles Jarrott
В ролях: Питер Финч, Лив Ульман, Сэлли Келлермен, Джордж Кеннеди, Майкл Йорк, Оливия Хасси, Бобби Ван, Джеймс Шигета, Шарль Буайе, Джон Гилгуд
Описание: В 1935 году во время восстания в Китае самолет с пятью англичанами и американцами на борту совершил вынужденную посадку в глухих горах Тибета, там, где еще не ступала нога цивилизованного человека. Бедняги уже готовы были распроститься с жизнью, как вдруг к ним пришло спасение в виде странных буддийских монахов, глава которых, к их удивлению, говорил на английском. Он приводит их в сказочную страну Шангри-Ла, ранее никому не известную. В этой идеальной стране здоровье, мир и долголетие правят людьми в отличие от всего остального, цивилизованного мира. Основной принцип их "идеологии" - отказ от излишеств...
Доп. информация: За исходник BDRip-1080p спасибо roma19981998
Синхрон русской дорожки - sasha20072007 (kosmoaelita)
Качество видео: HDRip
Формат видео: AVI
Видео: 720x304 (2.37:1), 23.976 fps, XviD build 50 ~1198 kbps avg, 0.23 bit/pixel
Аудио: 48 kHz, AC3 Dolby Digital, 2/0 (L,R) ch, ~192 kbps

MediaInfo

Потерянный горизонт - Lost Horizon [by Edich2].avi
Format : AVI
Format/Info : Audio Video Interleave
File size : 1.46 GiB
Duration : 2h 29mn
Overall bit rate : 1 400 Kbps
Movie name : Потерянный горизонт - Lost Horizon
Director : Rip by Edich2
Writing application : VirtualDubMod 1.5.10.2 (build 2540/release)
Comment : erzsebet.org
Video
ID : 0
Format : MPEG-4 Visual
Format profile : Advanced [email protected]
Format settings, BVOP : 2
Format settings, QPel : No
Format settings, GMC : No warppoints
Format settings, Matrix : Custom
Codec ID : XVID
Codec ID/Hint : XviD
Duration : 2h 29mn
Bit rate : 1 199 Kbps
Width : 720 pixels
Height : 304 pixels
Display aspect ratio : 2.35:1
Frame rate : 23.976 fps
Color space : YUV
Chroma subsampling : 4:2:0
Bit depth : 8 bits
Scan type : Progressive
Compression mode : Lossy
Bits/(Pixel*Frame) : 0.228
Stream size : 1.25 GiB (86%)
Writing library : XviD 1.2.1 (UTC 2008-12-04)
Audio
ID : 1
Format : AC-3
Format/Info : Audio Coding 3
Mode extension : CM (complete main)
Format settings, Endianness : Big
Codec ID : 2000
Duration : 2h 29mn
Bit rate mode : Constant
Bit rate : 192 Kbps
Channel count : 2 channels
Channel positions : Front: L R
Sampling rate : 48.0 KHz
Bit depth : 16 bits
Compression mode : Lossy
Stream size : 205 MiB (14%)
Alignment : Split accross interleaves
Interleave, duration : 42 ms (1.00 video frame)
Interleave, preload duration : 500 ms

Скриншоты


If your ratio falls below 0.3, you will not be able to download Torrents! More about the rating.

[erzsebet.pl].t48901.torrent
Torrent: Registered   [ 2017-12-10 22:03 ]

Download .torrent

Download

15 KB

Status: checked
Completed: 16 times
Size: 1.46 GB
terms.php

#1

10-Dec-2017 22:02

[Profile]  [PM] 
Display posts:    

You cannot post new topics in this forum
You cannot reply to topics in this forum
You cannot edit your posts in this forum
You cannot delete your posts in this forum
You cannot vote in polls in this forum
You cannot attach files in this forum
You can download files in this forum
User agreement
For copyright holders
Advertise on this site

Скачайте на халяву через торрент на трекере erzsebet.pl

!ATTENTION!
The site does not give electronic versions of products, and is engaged only in a collecting and cataloguing of the references sent and published at a forum by our readers. If you are the legal owner of any submitted material and do not wish that the reference to it was in our catalogue, contact us and we shall immediately remove her. Files for an exchange on tracker are given by users of a site, and the administration does not bear the responsibility for their maintenance. The request to not fill in the files protected by copyrights, and also files of the illegal maintenance!