Ализ и Хлоя / Алиса и Хлоя / Alyse et Chloe (Рене Гейнвиль / Rene Gainville) [1970, Франция, эротическая мелодрама, лесби-тема, DVB] Original (Fre) + Sub (rus)

DL-List and Torrent activity
Size:  1.95 GB   |    Registered:  2 years 10 months   |    Completed:  16 times
Seeders:  2  
 
   
 
 

Max Levien ®

Longevity:
2 years 10 months
Posts:
20374

[Quote] 

Ализ и Хлоя
Alyse et Chloé- Страна: Франция
Жанр: эротическая мелодрама, лесби-тема
Год выпуска: 1970
Продолжительность: 01:18:25
Перевод: Субтитры (перевод А. Вижье, Éclair Group)
Субтитры: русские
Оригинальная аудиодорожка: французский
Режиссер: Рене Гейнвиль / René GainvilleВ ролях: Катрин Якобсен / Catherine Jacobsen (Alyse), Мишель Жирардон / Michèle Girardon (Chloé), Карин Балм / Karyn Balm (Marthe), Кристиан Кервиль / Christian Kerville (Luc Bordier), Пьер Ардити / Pierre Arditi (Le mage adepte du nombril), Симона Бертье / Simone Berthier (La mère d'Alyse)Описание: У Ализ, успешной фотомодели, уже год как роман с модным фотографом Люком Бордье. Он ее по-настоящему любит, но не уделяет достаточно времени, так как слишком занят своей работой. Этим пользуется Хлоя, работающая в том же рекламном агентстве. Она соблазняет скучающую по ласкам девушку… Затем следует экзотическая поездка в Вест-Индию…-Мишель Жирардон дебютировала в кино в 1956 году и к 1971 году, сыграв в 35-ти фильмах и телесериалах, она окончила кинокарьеру. Первые роли Жирардон состоялись в фильмах "Смерть в этом саду" (1956) реж. Луиса Бунюэля и "Любовники" (1958) реж. Луи Маля. Наибольший успех пришелся на фильмы: "Знак льва" (1962) реж. Эрика Ромера и номинанта на "Оскар" "Хатари!" (1962) реж. Говарда Хоукса. Она также играла в фильмах Александра Астрюка, Роже Вадима, Жана Буайе, Андре Кайата, Жана Бекера. Находясь в депрессии по поводу неудач в карьере и личной жизни, 36-летняя Мишель покончила жизнь самоубийством 25 марта 1975 года, отравившись лекарствами.-Доп. информация: TV5MONDE DVB-S. На территории РФ возрастное ограничение 18+. Фильм на VHS, DVD и проч. не выходил.
Качество видео: DVB
Формат видео: MKV
Видео: MPEG Video 2, [email protected] (16:9), 25 fps, ~3299 kbps avg, 0.325 bit/pixel
Аудио: Французский (MPEG Audio 2, 2 ch, 48 kHz, ~192.00 kbps avg)
Формат субтитров: hardsub (неотключаемые)

MediaInfo

Общее
Уникальный идентификатор : 253196505201233326989848367455424250870 (0xBE7BDF84AB620A8794178D65D1A483F6)
Полное имя : E:\My Torrents 2\[apreder]Alyse_et_Chloe(1970)DVB.mkv
Формат : Matroska
Версия формата : Version 2
Размер файла : 1,95 Гбайт
Продолжительность : 1 ч. 18 м.
Режим общего битрейта : Переменный
Общий поток : 3562 Кбит/сек
Дата кодирования : UTC 2014-09-16 16:46:29
Программа кодирования : mkvmerge v7.2.0 ('On Every Street') 64bit built on Sep 13 2014 15:52:10
Библиотека кодирования : libebml v1.3.0 + libmatroska v1.4.1
Видео
Идентификатор : 1
Формат : MPEG Video
Версия формата : Version 2
Профиль формата : [email protected]
Параметр BVOP формата : Нет
Параметр матрицы формата : Выборочная
Идентификатор кодека : V_MPEG2
Идентификатор кодека/Информация : MPEG 1 or 2 Video
Продолжительность : 1 ч. 18 м.
Вид битрейта : Переменный
Битрейт : 3299 Кбит/сек
Максимальный битрейт : 8530 Кбит/сек
Ширина : 704 пикселя
Высота : 576 пикселей
Соотношение сторон : 16:9
Режим частоты кадров : Постоянный
Частота кадров : 25,000 кадров/сек
Стандарт вещания : PAL
Цветовое пространство : YUV
Субдискретизация насыщенности : 4:2:0
Битовая глубина : 8 бит
Тип развёртки : Чересстрочная
Порядок развёртки : Верхнее поле первое
Метод сжатия : С потерями
Бит/(Пиксели*Кадры) : 0.325
Временной код первого кадра : 00:00:00:00
Оригинал временного кода : Group of pictures header
Размер потока : 1,81 Гбайт (93%)
Default : Да
Forced : Нет
Аудио
Идентификатор : 2
Формат : MPEG Audio
Версия формата : Version 1
Профиль формата : Layer 2
Идентификатор кодека : A_MPEG/L2
Идентификатор кодека/Подсказка : MP2
Продолжительность : 1 ч. 18 м.
Вид битрейта : Постоянный
Битрейт : 192 Кбит/сек
Каналы : 2 канала
Частота : 48,0 КГц
Метод сжатия : С потерями
Размер потока : 108 Мбайт (5%)
Язык : French
Default : Да
Forced : Нет

Скриншот c названием фильма

Скриншоты


Резервные скриншоты


-[1'726]

If your ratio falls below 0.3, you will not be able to download Torrents! More about the rating.

[erzsebet.pl].t48903.torrent
Torrent: Registered   [ 2017-12-10 22:03 ]

Download .torrent

Download

20 KB

Status: checked
Completed: 16 times
Size: 1.95 GB
terms.php

#1

10-Dec-2017 22:02

[Profile]  [PM] 
Display posts:    

You cannot post new topics in this forum
You cannot reply to topics in this forum
You cannot edit your posts in this forum
You cannot delete your posts in this forum
You cannot vote in polls in this forum
You cannot attach files in this forum
You can download files in this forum
User agreement
For copyright holders
Advertise on this site

Скачайте на халяву через торрент на трекере erzsebet.pl

!ATTENTION!
The site does not give electronic versions of products, and is engaged only in a collecting and cataloguing of the references sent and published at a forum by our readers. If you are the legal owner of any submitted material and do not wish that the reference to it was in our catalogue, contact us and we shall immediately remove her. Files for an exchange on tracker are given by users of a site, and the administration does not bear the responsibility for their maintenance. The request to not fill in the files protected by copyrights, and also files of the illegal maintenance!