Голубая молния / The Blue Lightning (Ли Филипс / Lee Philips) [1986, Австралия, Боевик, SATRip] DVO (НТВ)

DL-List and Torrent activity
Size:  1.13 GB   |    Registered:  2 years 10 months   |    Completed:  16 times
Seeders:  2  
 
   
 
 

Max Levien ®

Longevity:
2 years 10 months
Posts:
20374

[Quote] 

Голубая молния / The Blue Lightning
Страна: Австралия
Жанр: Боевик
Год выпуска: 1986
Продолжительность: 1:29:21
Перевод: Профессиональный (двухголосый закадровый) НТВ
Субтитры: нет
Режиссер: Ли Филипс / Lee Philips
В ролях: Сэм Эллиотт, Ребекка Гиллинг, Джон Майллон, Robert Coleby, Макс Фиппс, Роберт Калп, Ральф Коттерилл, Джек Дэвис, Рэй Мигер, Майкл Карман
Описание: Частный детектив Харри борется против преступника Лестера в австралийской провинции с целью завладеть бесценным опалом.
Доп. информация: Дорога синхронизирована из раздачи Гость
Сэмпл: https://yadi.sk/i/hUHIhaIviLt9J
Качество видео: SATRip
Формат видео: AVI
Видео: XviD MPEG-4 , 720x544 (1.32:1) , 25.000 fps , 1611 kbps avg
Аудио: AC3 , 48 kHz , 192.00 kbps avg , 2/0 (L,R) ch

MediaInfo

Complete name Голубая молния 1986.avi
Format : AVI
Format/Info : Audio Video Interleave
File size : 1.13 GiB
Duration : 1h 29mn
Overall bit rate : 1 814 Kbps
Video
ID : 0
Format : MPEG-4 Visual
Format profile : Advanced [email protected]
Format settings, BVOP : 1
Format settings, QPel : No
Format settings, GMC : No warppoints
Format settings, Matrix : Default (H.263)
Codec ID : XVID
Codec ID/Hint : XviD
Duration : 1h 29mn
Bit rate : 1 612 Kbps
Width : 720 pixels
Height : 544 pixels
Display aspect ratio : 4:3
Frame rate : 25.000 fps
Color space : YUV
Chroma subsampling : 4:2:0
Bit depth : 8 bits
Scan type : Progressive
Compression mode : Lossy
Bits/(Pixel*Frame) : 0.165
Stream size : 1.01 GiB (89%)
Writing library : XviD 1.2.1 (UTC 2008-12-04)
Audio
ID : 1
Format : AC-3
Format/Info : Audio Coding 3
Mode extension : CM (complete main)
Format settings, Endianness : Big
Codec ID : 2000
Duration : 1h 29mn
Bit rate mode : Constant
Bit rate : 192 Kbps
Channel(s) : 2 channels
Channel positions : Front: L R
Sampling rate : 48.0 KHz
Bit depth : 16 bits
Compression mode : Lossy
Stream size : 123 MiB (11%)
Alignment : Aligned on interleaves
Interleave, duration : 40 ms (1.00 video frame)
Interleave, preload duratio : 512 ms

Скриншоты

If your ratio falls below 0.3, you will not be able to download Torrents! More about the rating.

[erzsebet.pl].t48907.torrent
Torrent: Registered   [ 2017-12-10 22:03 ]

Download .torrent

Download

12 KB

Status: checked
Completed: 16 times
Size: 1.13 GB
terms.php

#1

10-Dec-2017 22:02

[Profile]  [PM] 
Display posts:    

You cannot post new topics in this forum
You cannot reply to topics in this forum
You cannot edit your posts in this forum
You cannot delete your posts in this forum
You cannot vote in polls in this forum
You cannot attach files in this forum
You can download files in this forum
User agreement
For copyright holders
Advertise on this site

Скачайте на халяву через торрент на трекере erzsebet.pl

!ATTENTION!
The site does not give electronic versions of products, and is engaged only in a collecting and cataloguing of the references sent and published at a forum by our readers. If you are the legal owner of any submitted material and do not wish that the reference to it was in our catalogue, contact us and we shall immediately remove her. Files for an exchange on tracker are given by users of a site, and the administration does not bear the responsibility for their maintenance. The request to not fill in the files protected by copyrights, and also files of the illegal maintenance!