Эйр Америка / Air America (Роджер Споттисвуд / Roger Spottiswoode) [1990, США, приключения, боевик, комедия, DVDRip] [Fullscreen version] MVO (DVD Group)

DL-List and Torrent activity
Size:  1.46 GB   |    Registered:  2 years 10 months   |    Completed:  16 times
Seeders:  3  
 
   
 
 

Max Levien ®

Longevity:
2 years 10 months
Posts:
20374

[Quote] 

Эйр Америка / Air America / Fullscreen version
Страна: США
Жанр: приключения, боевик, комедия
Год выпуска: 1990
Продолжительность: 01:47:36
-
Перевод: Профессиональный (многоголосый закадровый) DVD Group
Субтитры: нет
-
Режиссер: Роджер Споттисвуд / Roger Spottiswoode
В ролях: Мэл Гибсон, Роберт Дауни мл., Нэнси Трэвис, Кен Дженкинс, Дэвид Маршалл Грант, Тим Томерсон, Лейн Смит, Арт ЛаФлер, Нед Айзенберг, Маршалл Белл, Дэвид Бауи, Берт Куок.
-
Описание: В 1969 году в самом разгаре была необъявленная и неофициальная война США в Лаосе. Формально всеми операциями по переброске солдат и оружия правительства Лаоса занималась частная фирма «Эйр Америка». Джин и Билли, работающие пилотами на самолетах этой фирмы и выполняющие опасные полеты над джунглями, узнают, что фирма служит ЦРУ прикрытием для переброски героина из Лаоса...
-

-
Качество видео: DVDRip (DVD5) Спасибо виктор юрьевич
Формат видео: AVI
Видео: 640x480 (1.33:1), 25 fps, XviD build 65 ~1482 kbps avg, 0.19 bit/pixel
Аудио: 48 kHz, AC3 Dolby Digital, 3/2 (L,C,R,l,r) + LFE ch, ~448 kbps

Сравнение скриншотов

http://erzsebet.org/forum/viewtopic.php?t=197379 http://screenshotcomparison.com/comparison/18198/picture:0 - перевод индентичен
http://erzsebet.org/forum/viewtopic.php?t=2524113 http://screenshotcomparison.com/comparison/18205/picture:2 - (разное наполнение кадра) перевод индентичен

MediaInfo

General
Complete name : D:\Релизы\Air America.Fullscreen version.1990.RUS.DVDRip.XviD.AC3.avi
Format : AVI
Format/Info : Audio Video Interleave
File size : 1.46 GiB
Duration : 1h 47mn
Overall bit rate : 1 940 Kbps
Writing application : VirtualDubMod 1.5.10.2 (build 2540/release)
Writing library : VirtualDubMod build 2540/release
Video
ID : 0
Format : MPEG-4 Visual
Format profile : Advanced [email protected]
Format settings, BVOP : 1
Format settings, QPel : No
Format settings, GMC : No warppoints
Format settings, Matrix : Custom
Codec ID : XVID
Codec ID/Hint : XviD
Duration : 1h 47mn
Bit rate : 1 483 Kbps
Width : 640 pixels
Height : 480 pixels
Display aspect ratio : 4:3
Frame rate : 25.000 fps
Color space : YUV
Chroma subsampling : 4:2:0
Bit depth : 8 bits
Scan type : Progressive
Compression mode : Lossy
Bits/(Pixel*Frame) : 0.193
Stream size : 1.11 GiB (76%)
Writing library : XviD 65
Audio
ID : 1
Format : AC-3
Format/Info : Audio Coding 3
Mode extension : CM (complete main)
Format settings, Endianness : Big
Codec ID : 2000
Duration : 1h 47mn
Bit rate mode : Constant
Bit rate : 448 Kbps
Channel(s) : 6 channels
Channel positions : Front: L C R, Side: L R, LFE
Sampling rate : 48.0 KHz
Bit depth : 16 bits
Compression mode : Lossy
Stream size : 344 MiB (23%)
Alignment : Split accross interleaves
Interleave, duration : 40 ms (1.00 video frame)
Interleave, preload duration : 500 ms

Скриншоты

If your ratio falls below 0.3, you will not be able to download Torrents! More about the rating.

[erzsebet.pl].t48909.torrent
Torrent: Registered   [ 2017-12-10 22:03 ]

Download .torrent

Download

15 KB

Status: checked
Completed: 16 times
Size: 1.46 GB
terms.php

#1

10-Dec-2017 22:02

[Profile]  [PM] 
Display posts:    

You cannot post new topics in this forum
You cannot reply to topics in this forum
You cannot edit your posts in this forum
You cannot delete your posts in this forum
You cannot vote in polls in this forum
You cannot attach files in this forum
You can download files in this forum
User agreement
For copyright holders
Advertise on this site

Скачайте на халяву через торрент на трекере erzsebet.pl

!ATTENTION!
The site does not give electronic versions of products, and is engaged only in a collecting and cataloguing of the references sent and published at a forum by our readers. If you are the legal owner of any submitted material and do not wish that the reference to it was in our catalogue, contact us and we shall immediately remove her. Files for an exchange on tracker are given by users of a site, and the administration does not bear the responsibility for their maintenance. The request to not fill in the files protected by copyrights, and also files of the illegal maintenance!