Нечто / The Thing (Джон Карпентер / John Carpenter) [1982, США, ужасы, фантастика, триллер, детектив, HDRip] MVO

DL-List and Torrent activity
Size:  743 MB   |    Registered:  2 years 10 months   |    Completed:  16 times
Seeders:  3  
 
   
 
 

Max Levien ®

Longevity:
2 years 10 months
Posts:
20374

[Quote] 

Нечто / The Thing
Год выпуска: 1982
Страна: США
Жанр: ужасы, фантастика, триллер, детектив
Продолжительность: 01:48:42.317
Перевод: Профессиональный (многоголосый, закадровый)
Русские субтитры: нет
Режиссер: Джон Карпентер / John Carpenter
В ролях: Курт Рассел, Уилфорд Бримли, Т.К. Картер, Дэвид Кленнон, Кит Дэвид, Ричард А. Дайсарт, Чарльз Хэллахан, Питер Мэлоуни, Ричард Мейсер, Дональд Моффет, Джоэл Полис, Томас Дж. Уэйтс
Описание: Команде ученых американской исследовательской базы в Антарктике предстоит столкнуться с необъяснимым, чудовищным кошмаром. Отрезанные от всего света полярники вступают в неравную схватку с инопланетной тварью, пробудившейся после тысячелетней спячки во льдах, беспощадным существом, которое проснулось и… проголодалось.

Исходник: HD-DVDRip 1080p
Качество: HDRip
Формат: AVI
Размер файла: 743.31 Мб = 1/6 DVD
Видео кодек: XviD
Аудио кодек: MP3
Видео: 672x288 (2.33:1), 23.976 fps, XviD build 50 ~818 kbps avg, 0.18 bit/pixel
Аудио: 48 kHz, MPEG Layer 3, 2 ch, ~128.00 kbps avg

Сравнение

http://erzsebet.org/forum/viewtopic.php?t=1633827

MI

General
Complete name : C:\Ishodniki\The.Thing.1982.1080p.HDDVDRip.Rus.Eng\Нечто (The Thing) 1982г..avi
Format : AVI
Format/Info : Audio Video Interleave
File size : 751 MiB
Duration : 1h 48mn
Overall bit rate : 966 Kbps
Writing application : VirtualDubMod 1.5.10.2 (build 2540/release)
Writing library : VirtualDubMod build 2540/release
Video
ID : 0
Format : MPEG-4 Visual
Format profile : Advanced [email protected]
Format settings, BVOP : Yes
Format settings, QPel : Yes
Format settings, GMC : 3 warppoints

Format settings, Matrix : Default (H.263)
Codec ID : XVID
Codec ID/Hint : XviD
Duration : 1h 48mn
Bit rate : 829 Kbps
Width : 656 pixels
Height : 280 pixels
Display aspect ratio : 2.35:1
Frame rate : 23.976 fps
Color space : YUV
Chroma subsampling : 4:2:0
Bit depth : 8 bits
Scan type : Progressive
Compression mode : Lossy
Bits/(Pixel*Frame) : 0.188
Stream size : 644 MiB (86%)
Writing library : XviD 1.2.0.dev47 (UTC 2006-11-01)
Audio
ID : 1
Format : MPEG Audio
Format version : Version 1
Format profile : Layer 3
Codec ID : 55
Codec ID/Hint : MP3
Duration : 1h 48mn
Bit rate mode : Constant
Bit rate : 128 Kbps
Channel(s) : 2 channels
Sampling rate : 48.0 KHz
Compression mode : Lossy
Stream size : 99.5 MiB (13%)
Alignment : Aligned on interleaves
Interleave, duration : 42 ms (1.00 video frame)
Interleave, preload duration : 504 ms
Writing library : LAME3.97
Encoding settings : -m s -V 4 -q 2 -lowpass 17 -b 128
Без комментариев
Релиз групп ALL FILMS и R.G.Torrents.ru

If your ratio falls below 0.3, you will not be able to download Torrents! More about the rating.

[erzsebet.pl].t48917.torrent
Torrent: Registered   [ 2017-12-10 22:03 ]

Download .torrent

Download

15 KB

Status: checked
Completed: 16 times
Size: 743 MB
terms.php

#1

10-Dec-2017 22:01

[Profile]  [PM] 
Display posts:    

You cannot post new topics in this forum
You cannot reply to topics in this forum
You cannot edit your posts in this forum
You cannot delete your posts in this forum
You cannot vote in polls in this forum
You cannot attach files in this forum
You can download files in this forum
User agreement
For copyright holders
Advertise on this site

Скачайте на халяву через торрент на трекере erzsebet.pl

!ATTENTION!
The site does not give electronic versions of products, and is engaged only in a collecting and cataloguing of the references sent and published at a forum by our readers. If you are the legal owner of any submitted material and do not wish that the reference to it was in our catalogue, contact us and we shall immediately remove her. Files for an exchange on tracker are given by users of a site, and the administration does not bear the responsibility for their maintenance. The request to not fill in the files protected by copyrights, and also files of the illegal maintenance!