37,2 по утрам / 37°2 le matin / Betty Blue (Жан-Жак Бенекс / Jean-Jacques Beineix) [1986, Франция, Драма, BDRip-AVC] AVO + Original Fre + Sub Eng [Режиссерская версия]

DL-List and Torrent activity
Size:  4.36 GB   |    Registered:  2 years 10 months   |    Completed:  16 times
Seeders:  3  
 
   
 
 

Max Levien ®

Longevity:
2 years 10 months
Posts:
20374

[Quote] 

37,2 по утрам / 37°2 le matin / Betty Blue / Режиссерская версия Страна: Франция
Жанр: Драма, мелодрама
Год выпуска: 1986
Продолжительность: 03:04:41
Перевод: Профессиональный (одноголосый закадровый) - (Владислав Огородников|Лектор)
Оригинальная аудиодорожка: французская
Субтитры: английские
Режиссер: Жан-Жак Бенекс / Jean-Jacques Beineix
В ролях: Жан-Юг Англад, Беатрис Даль, Жерар Дармон, Консуэло Де Хэвиленд, Клементин Селарье, Жак Мату, Венсан Линдон, Жан-Пьер Биссон, Доминик Пинон, Клод Офор, Луи Белланти, Натали Дальван, Андре Жюльен, Бернард Робин, Филипп Лоденбаш, Фредерик Каратини, Джессика Форд
Описание: Бетти — имя девушки, которая однажды познакомилась с начинающим писателем Зоргом. Целую неделю после первой встречи Зорг и Бетти не вылезали из постели. Они занимались любовью до изнеможения — день за днем, месяц за месяцем. Однако Судьба уготовила им трагическую расплату за такое недолговечное счастье…
Качество видео: BDRip-AVC |37,2 по утрам / 37°2 le matin (1986) [Directors Cut] Blu-Ray 1080p AVC DD 2.0 HDCLUB & suzaku|
Формат видео: MKV
Видео: AVC (x264), 1080x648 (1.66:1), ~3000 kbps, 24.000 fps, 0.178 bpp
Аудио 1: AС3, 48 KHz, 2 ch, 192 kbps - Русский
Аудио 2: AС3, 48 KHz, 2 ch, 192 kbps - Французский
Формат субтитров: softsub (SRT)
Релиз от: nnlabetik

x264|MediaInfo

x264 [info]


Crop(60, 0, -60, -0)
raw [info]: 1080x648p 1:1 @ 24/1 fps (cfr)
x264 [info]: using SAR=1/1
x264 [info]: using cpu capabilities: MMX2 SSE2Fast SSSE3 SSE4.2
x264 [info]: profile High, level 4.1
x264 [info]: frame I:1467 Avg QP:19.20 size:100519
x264 [info]: frame P:51584 Avg QP:21.89 size: 32656
x264 [info]: frame B:212895 Avg QP:22.90 size: 10871
x264 [info]: consecutive B-frames: 1.0% 0.9% 3.6% 14.4% 22.4% 45.4% 10.0% 1.1% 0.9% 0.2% 0.0% 0.0% 0.0% 0.0% 0.0% 0.0% 0.0%
x264 [info]: mb I I16..4: 1.9% 84.6% 13.5%
x264 [info]: mb P I16..4: 0.2% 5.4% 0.6% P16..4: 35.0% 42.1% 15.3% 0.0% 0.0% skip: 1.3%
x264 [info]: mb B I16..4: 0.0% 0.4% 0.1% B16..8: 38.1% 20.2% 3.6% direct: 5.6% skip:32.0% L0:43.0% L1:46.9% BI:10.1%
x264 [info]: 8x8 transform intra:85.4% inter:60.3%
x264 [info]: direct mvs spatial:97.9% temporal:2.1%
x264 [info]: coded y,uvDC,uvAC intra: 93.5% 84.0% 56.9% inter: 28.9% 21.4% 7.9%
x264 [info]: i16 v,h,dc,p: 53% 14% 4% 29%
x264 [info]: i8 v,h,dc,ddl,ddr,vr,hd,vl,hu: 11% 7% 5% 10% 15% 14% 14% 11% 11%
x264 [info]: i4 v,h,dc,ddl,ddr,vr,hd,vl,hu: 15% 7% 2% 9% 15% 16% 14% 11% 11%
x264 [info]: i8c dc,h,v,p: 37% 22% 22% 19%
x264 [info]: ref P L0: 43.7% 21.4% 10.3% 7.3% 4.6% 5.4% 3.9% 3.2% 0.2%
x264 [info]: ref B L0: 71.5% 12.7% 5.8% 3.4% 2.4% 2.3% 1.2% 0.6%
x264 [info]: ref B L1: 94.1% 5.9%
x264 [info]: kb/s:2993.53
encoded 265946 frames, 4.31 fps, 2993.53 kb/s
Общее
Уникальный идентификатор : 224555707998643916974339269063232541787 (0xA8EFDB315985176BA8D77BDA6339545B)
Полное имя : ...\Betty Blue_1986.AVC.mkv
Формат : Matroska
Версия формата : Version 4 / Version 2
Размер файла : 4,36 Гбайт
Продолжительность : 3 ч. 4 м.
Общий поток : 3380 Кбит/сек
Название фильма : 37,2 по утрам / 37°2 le matin (1986) [Directors Cut] [email protected]=-
Дата кодирования : UTC 2015-01-17 19:17:08
Программа кодирования : mkvmerge v7.5.0 ('Glass Culture') 32bit built on Jan 4 2015 16:37:25
Библиотека кодирования : libebml v1.3.1 + libmatroska v1.4.2
Видео
Идентификатор : 1
Формат : AVC
Формат/Информация : Advanced Video Codec
Профиль формата : [email protected]
Параметр CABAC формата : Да
Параметр ReFrames формата : 9 кадров
Идентификатор кодека : V_MPEG4/ISO/AVC
Продолжительность : 3 ч. 4 м.
Битрейт : 2994 Кбит/сек
Ширина : 1080 пикселей
Высота : 648 пикселей
Соотношение сторон : 1,667
Режим частоты кадров : Постоянный
Частота кадров : 24,000 кадра/сек
Цветовое пространство : YUV
Субдискретизация насыщенности : 4:2:0
Битовая глубина : 8 бит
Тип развёртки : Прогрессивная
Бит/(Пиксели*Кадры) : 0.178
Размер потока : 3,78 Гбайт (87%)
Заголовок : Rip by nnlabetik
Библиотека кодирования : x264 core 144 r2525 40bb568
Настройки программы : cabac=1 / ref=9 / deblock=1:-3:-2 / analyse=0x3:0x113 / me=umh / subme=11 / psy=1 / psy_rd=1.00:0.00 / mixed_ref=1 / me_range=32 / chroma_me=1 / trellis=2 / 8x8dct=1 / cqm=0 / deadzone=21,11 / fast_pskip=0 / chroma_qp_offset=-2 / threads=4 / lookahead_threads=1 / sliced_threads=0 / nr=0 / decimate=0 / interlaced=0 / bluray_compat=0 / constrained_intra=0 / bframes=16 / b_pyramid=2 / b_adapt=2 / b_bias=0 / direct=3 / weightb=1 / open_gop=0 / weightp=0 / keyint=240 / keyint_min=23 / scenecut=40 / intra_refresh=0 / rc_lookahead=60 / rc=2pass / mbtree=0 / bitrate=2994 / ratetol=0.9 / qcomp=0.60 / qpmin=0 / qpmax=69 / qpstep=4 / cplxblur=20.0 / qblur=0.5 / vbv_maxrate=50000 / vbv_bufsize=62500 / nal_hrd=none / filler=0 / ip_ratio=1.35 / pb_ratio=1.25 / aq=2:1.20
Язык : French
Default : Да
Forced : Нет
Основные цвета : BT.709
Характеристики трансфера : BT.709
Коэффициенты матрицы : BT.709
colour_range : Limited
Аудио #1
Идентификатор : 2
Формат : AC-3
Формат/Информация : Audio Coding 3
Расширение режима : CM (complete main)
Параметр Endianness формата : Big
Идентификатор кодека : A_AC3
Продолжительность : 3 ч. 4 м.
Вид битрейта : Постоянный
Битрейт : 192 Кбит/сек
Каналы : 2 канала
Расположение каналов : Front: L R
Частота : 48,0 КГц
Битовая глубина : 16 бит
Метод сжатия : С потерями
Размер потока : 254 Мбайт (6%)
Язык : Russian
Default : Да
Forced : Нет
Аудио #2
Идентификатор : 3
Формат : AC-3
Формат/Информация : Audio Coding 3
Расширение режима : CM (complete main)
Параметр Endianness формата : Big
Идентификатор кодека : A_AC3
Продолжительность : 3 ч. 4 м.
Вид битрейта : Постоянный
Битрейт : 192 Кбит/сек
Каналы : 2 канала
Расположение каналов : Front: L R
Частота : 48,0 КГц
Битовая глубина : 16 бит
Метод сжатия : С потерями
Размер потока : 254 Мбайт (6%)
Язык : French
Default : Нет
Forced : Нет
Текст
Идентификатор : 4
Формат : UTF-8
Идентификатор кодека : S_TEXT/UTF8
Идентификатор кодека/Информация : UTF-8 Plain Text
Язык : English
Default : Нет
Forced : Нет
Меню
00:00:00.000 : :Chapter 01
00:05:10.458 : :Chapter 02
00:12:17.625 : :Chapter 03
00:16:58.250 : :Chapter 04
00:23:52.208 : :Chapter 05
00:30:25.000 : :Chapter 06
00:36:14.833 : :Chapter 07
00:42:27.041 : :Chapter 08
00:47:32.041 : :Chapter 09
00:55:04.458 : :Chapter 10
01:00:11.458 : :Chapter 11
01:06:11.333 : :Chapter 12
01:13:06.708 : :Chapter 13
01:17:33.208 : :Chapter 14
01:24:49.541 : :Chapter 15
01:29:51.041 : :Chapter 16
01:36:13.208 : :Chapter 17
01:42:31.166 : :Chapter 18
01:49:13.250 : :Chapter 19
01:56:21.083 : :Chapter 20
02:01:24.708 : :Chapter 21
02:05:02.208 : :Chapter 22
02:10:22.958 : :Chapter 23
02:19:02.166 : :Chapter 24
02:26:08.875 : :Chapter 25
02:31:19.416 : :Chapter 26
02:34:29.541 : :Chapter 27
02:41:26.958 : :Chapter 28
02:47:17.875 : :Chapter 29
02:53:07.541 : :Chapter 30
03:01:20.750 : :Chapter 31
03:04:40.750 : :Chapter 32

If your ratio falls below 0.3, you will not be able to download Torrents! More about the rating.

[erzsebet.pl].t48919.torrent
Torrent: Registered   [ 2017-12-10 22:03 ]

Download .torrent

Download

11 KB

Status: checked
Completed: 16 times
Size: 4.36 GB
terms.php

#1

10-Dec-2017 22:01

[Profile]  [PM] 
Display posts:    

You cannot post new topics in this forum
You cannot reply to topics in this forum
You cannot edit your posts in this forum
You cannot delete your posts in this forum
You cannot vote in polls in this forum
You cannot attach files in this forum
You can download files in this forum
User agreement
For copyright holders
Advertise on this site

Скачайте на халяву через торрент на трекере erzsebet.pl

!ATTENTION!
The site does not give electronic versions of products, and is engaged only in a collecting and cataloguing of the references sent and published at a forum by our readers. If you are the legal owner of any submitted material and do not wish that the reference to it was in our catalogue, contact us and we shall immediately remove her. Files for an exchange on tracker are given by users of a site, and the administration does not bear the responsibility for their maintenance. The request to not fill in the files protected by copyrights, and also files of the illegal maintenance!