Венецианский палач / Il Boia di Venezia (Луиджи Капуано / Luigi Capuano) [1963, Италия, приключения, исторический, драма, DVDRip] DVO (НТВ-Профит) + Original Ita

DL-List and Torrent activity
Size:  1.42 GB   |    Registered:  2 years 10 months   |    Completed:  16 times
Seeders:  3  
 
   
 
 

Max Levien ®

Longevity:
2 years 10 months
Posts:
20374

[Quote] 

Венецианский палач / Il Boia di Venezia
Страна: Италия
Жанр: приключения, исторический, драма
Год выпуска: 1963
Продолжительность: 01:28:40
Перевод: Профессиональный (двухголосый закадровый) НТВ-Профит
Субтитры: нет
Оригинальная аудиодорожка: итальянский, испанский
Режиссер: Луиджи Капуано / Luigi Capuano
В ролях: Лекс Баркер, Гай Мэдисон, Алессандра Панаро. Марио Петри, Альберто Фарнези, Джулио Маркетти, Фёдор Шаляпин мл., Мария Точиноски, Франко Фантазиа, Раф Бальдассарре, Мирелла Рокси, Джон Барта, Аттилио Северини, Джулиан МакМиллан, Джулиана Фарнезе, Романо Джомини
Описание: Венеция, 1654 год. Идет непрекращающаяся борьба с многочисленными пиратскими кораблями, бесчинствующими в водах Адриатики. Смертельно больной глава придворного совета Венеции, дож Джованни Бембо открывает своему сыну Сандриго тайну его происхождения: малыш был найден им на палубе атакованного венецианцами пиратского судна… В день свадьбы Сандриго с прекрасной Леонорой его арестовывают по приказу Верховного Инквизитора Родриго Зено, который сам домогается любви Леоноры. Бывший пират Гварниери, ныне придворный палач Венеции, состоящий в сговоре с Инквизитором, даже не догадывается о том, что ему предстоит казнить своего собственного сына...
Доп. информация: Работа со звуком спасибо alex7691
Сэмпл: http://multi-up.com/946223
Качество видео: DVDRip
Формат видео: AVI
Видео: XviD build 50, 672x288 (2.35:1), 25.00 fps, 1690 kbps avg
Аудио: Russian AC3 Dolby Digital, 48 kHz, 2/0 (L,R) ch, 192.00 kbps avg
Аудио 2: Italian AC3 Dolby Digital, 48 kHz, 2/0 (L,R) ch, 192.00 kbps avg
Аудио 3: Espanol AC3 Dolby Digital, 48 kHz, 2/0 (L,R) ch, 192.00 kbps avg

MediaInfo

Complete name : D:\Il Boia di Venezia_1963\Il Boia di Venezia_1963.DVO.DVDRip.avi
Format : AVI
Format/Info : Audio Video Interleave
File size : 1.42 GiB
Duration : 1h 28mn
Overall bit rate : 2 286 Kbps
Writing application : VirtualDubModRus 1.5.10.2 (build 2542/release)
Writing library : VirtualDubMod build 2542/release
Video
ID : 0
Format : MPEG-4 Visual
Format profile : Advanced [email protected]
Format settings, BVOP : 2
Format settings, QPel : No
Format settings, GMC : No warppoints
Format settings, Matrix : Default (MPEG)
Codec ID : XVID
Codec ID/Hint : XviD
Duration : 1h 28mn
Bit rate : 1 690 Kbps
Width : 672 pixels
Height : 288 pixels
Display aspect ratio : 2.35:1
Frame rate : 25.000 fps
Color space : YUV
Chroma subsampling : 4:2:0
Bit depth : 8 bits
Scan type : Progressive
Compression mode : Lossy
Bits/(Pixel*Frame) : 0.349
Stream size : 1.05 GiB (74%)
Writing library : XviD 73
Audio #1
ID : 1
Format : AC-3
Format/Info : Audio Coding 3
Mode extension : CM (complete main)
Format settings, Endianness : Big
Codec ID : 2000
Duration : 1h 28mn
Bit rate mode : Constant
Bit rate : 192 Kbps
Channel count : 2 channels
Channel positions : Front: L R
Sampling rate : 48.0 KHz
Bit depth : 16 bits
Compression mode : Lossy
Stream size : 122 MiB (8%)
Alignment : Split accross interleaves
Interleave, duration : 40 ms (1.00 video frame)
Interleave, preload duration : 500 ms
Audio #2
ID : 2
Format : AC-3
Format/Info : Audio Coding 3
Mode extension : CM (complete main)
Format settings, Endianness : Big
Codec ID : 2000
Duration : 1h 28mn
Bit rate mode : Constant
Bit rate : 192 Kbps
Channel count : 2 channels
Channel positions : Front: L R
Sampling rate : 48.0 KHz
Bit depth : 16 bits
Compression mode : Lossy
Stream size : 122 MiB (8%)
Alignment : Split accross interleaves
Interleave, duration : 40 ms (1.00 video frame)
Interleave, preload duration : 500 ms
Audio #3
ID : 3
Format : AC-3
Format/Info : Audio Coding 3
Mode extension : CM (complete main)
Format settings, Endianness : Big
Codec ID : 2000
Duration : 1h 28mn
Bit rate mode : Constant
Bit rate : 192 Kbps
Channel count : 2 channels
Channel positions : Front: L R
Sampling rate : 48.0 KHz
Bit depth : 16 bits
Compression mode : Lossy
Stream size : 122 MiB (8%)
Alignment : Split accross interleaves
Interleave, duration : 40 ms (1.00 video frame)
Interleave, preload duration : 500 ms

Скриншоты

If your ratio falls below 0.3, you will not be able to download Torrents! More about the rating.

[erzsebet.pl].t48923.torrent
Torrent: Registered   [ 2017-12-10 22:03 ]

Download .torrent

Download

15 KB

Status: checked
Completed: 16 times
Size: 1.42 GB
terms.php

#1

10-Dec-2017 22:01

[Profile]  [PM] 
Display posts:    

You cannot post new topics in this forum
You cannot reply to topics in this forum
You cannot edit your posts in this forum
You cannot delete your posts in this forum
You cannot vote in polls in this forum
You cannot attach files in this forum
You can download files in this forum
User agreement
For copyright holders
Advertise on this site

Скачайте на халяву через торрент на трекере erzsebet.pl

!ATTENTION!
The site does not give electronic versions of products, and is engaged only in a collecting and cataloguing of the references sent and published at a forum by our readers. If you are the legal owner of any submitted material and do not wish that the reference to it was in our catalogue, contact us and we shall immediately remove her. Files for an exchange on tracker are given by users of a site, and the administration does not bear the responsibility for their maintenance. The request to not fill in the files protected by copyrights, and also files of the illegal maintenance!