Банда шести / Six Pack (Дэниэл Петри / Daniel Petrie) [1982, США, Комедия, приключения, семейный, HDTVRip] MVO (ЭйБи-Видео) + Original

DL-List and Torrent activity
Size:  1.46 GB   |    Registered:  2 years 10 months   |    Completed:  16 times
Seeders:  3  
 
   
 
 

Max Levien ®

Longevity:
2 years 10 months
Posts:
20374

[Quote] 

Банда шести / Six Pack Год выпуска: 1982.
Страна: США .
Киностудии: 20th Century Fox, Lion Share.
Жанр: Комедия, приключения, семейный.
Продолжительность: 01:47:46.
Перевод: Профессиональный (многоголосый закадровый) Кинокомпания "ЭйБи-Видео" по заказу Первого канала.
Русские субтитры: нет.
Оригинальная аудио дорожка: Английский.
Режиссер: Дэниэл Петри /Daniel Petrie/.
В ролях:
Кенни Роджерс, Дайан Лэйн, Эрин Грэй, Бэрри Корбин, Терри Кайзер, Боб Ханна, Том Абернати, Робби Флеминг, Энтони Майкл Холл, Робби Стилл, Бенджи Уилхойт, Бадди Бэйкер, Гэри МакГуррин, Чарлз Каленберг, Рой Татум.
Описание:
# 1. Странствующий гонщик Брюстер Бейкер, ненадолго остановившийся в маленьком городке штата Техас, обнаруживает, что кто-то быстро и ловко "раздел" его автомобиль. "Злодеями" оказываются шесть обаятельных подростков–сирот. Бейкер не прибегает к помощи закона, узнав, что коррумпированный местный шериф забирает почти все вырученные ребятами деньги от продажи краденого за то, что не отправляет их в приют. Подростки, в свою очередь, подпадают под обаяние Брюстера и тайком уезжают с ним. Однако шерифа совершенно не радует потеря дополнительного дохода...
# 2. Гонщик Брюстер Бейкер остановился на заправке, и в это время кто-то украл несколько деталей его машины. Чуть позже он стал свидетелем того, как обворовали другую машину. Брюстер бросился в погоню за ворами, и когда их фургон упал в реку, он спас воришек. Оказалось, что это шесть сирот, которые занимаются воровством по приказу местного шерифа. Брюстер решил исправить ситуацию... (Томилин О.)
Доп. информация:
Премьера: 16 июля 1982 года.

Еще постеры

Ограничения

Рейтинг PG - Рекомендуется присутствие родителей.

Этот рейтинг получают фильмы, которые требуют внимания со стороны родителей. Возможно некоторые сцены из картины родители посчитают неприемлемыми для просмотра своими детьми. Но в фильме точно отсутствуют сексуальные эпизоды и сцены с использованием наркотиков. Рейтинг PG никогда не присвоят ленте жанра хоррор или триллер.
Релиз.....

Исходник: HDTVRip 720p
Качество: HDTVRip
Формат: AVI
Видео: 720x400 (1.80:1), 23.976 fps, XviD build 50 ~1536 kbps avg, 0.22 bit/pixel
Аудио 1: 48 kHz, AC3 Dolby Digital, 2/0 (L,R) ch, ~192 kbps - русский
Аудио 2: 48 kHz, AC3 Dolby Digital, 2/0 (L,R) ch, ~192 kbps - английский

Отчет MediaInfo

Общее
Полное имя : Banda.shesti.1982.XviD.HDTVRip.by.HeDgEhOt_1.46.avi
Формат : AVI
Формат/Информация : Audio Video Interleave
Размер файла : 1,46 Гбайт
Продолжительность : 1 ч. 47 м.
Общий поток : 1935 Кбит/сек
Название фильма : Банда шести / Six Pack (1982)
Правообладатель : HeDgEhOt®
Видео
Идентификатор : 0
Формат : MPEG-4 Visual
Профиль формата : Advanced [email protected]
Параметр BVOP формата : 1
Параметр QPel формата : Нет
Параметр GMC формата : Без точки перехода
Параметр матрицы формата : Выборочная
Идентификатор кодека : XVID
Идентификатор кодека/Подсказка : XviD
Продолжительность : 1 ч. 47 м.
Битрейт : 1537 Кбит/сек
Ширина : 720 пикселей
Высота : 400 пикселей
Соотношение сторон : 16:9
Частота кадров : 23,976 кадра/сек
Цветовое пространство : YUV
Субдискретизация насыщенности : 4:2:0
Битовая глубина : 8 бит
Тип развёртки : Прогрессивная
Метод сжатия : С потерями
Бит/(Пиксели*Кадры) : 0.223
Размер потока : 1,16 Гбайт (79%)
Библиотека кодирования : XviD 1.2.1 (UTC 2008-12-04)
Аудио #1
Идентификатор : 1
Формат : AC-3
Формат/Информация : Audio Coding 3
Расширение режима : CM (complete main)
Параметр Endianness формата : Big
Идентификатор кодека : 2000
Продолжительность : 1 ч. 47 м.
Вид битрейта : Постоянный
Битрейт : 192 Кбит/сек
Каналы : 2 канала
Расположение каналов : Front: L R
Частота : 48,0 КГц
Битовая глубина : 16 бит
Метод сжатия : С потерями
Размер потока : 148 Мбайт (10%)
Выравнивание : Разделение по промежуткам
Продолжительность промежутка : 42 мс. (1,00 видеокадр)
Время предзагрузки промежутка : 500 мс.
Язык : Russian
Аудио #2
Идентификатор : 2
Формат : AC-3
Формат/Информация : Audio Coding 3
Расширение режима : CM (complete main)
Параметр Endianness формата : Big
Идентификатор кодека : 2000
Продолжительность : 1 ч. 47 м.
Вид битрейта : Постоянный
Битрейт : 192 Кбит/сек
Каналы : 2 канала
Расположение каналов : Front: L R
Частота : 48,0 КГц
Битовая глубина : 16 бит
Метод сжатия : С потерями
Размер потока : 148 Мбайт (10%)
Выравнивание : Разделение по промежуткам
Продолжительность промежутка : 42 мс. (1,00 видеокадр)
Время предзагрузки промежутка : 500 мс.
Язык : English

Скриншоты

Альтернативный хост

If your ratio falls below 0.3, you will not be able to download Torrents! More about the rating.

[erzsebet.pl].t48928.torrent
Torrent: Registered   [ 2017-12-10 22:03 ]

Download .torrent

Download

15 KB

Status: checked
Completed: 16 times
Size: 1.46 GB
terms.php

#1

10-Dec-2017 22:01

[Profile]  [PM] 
Display posts:    

You cannot post new topics in this forum
You cannot reply to topics in this forum
You cannot edit your posts in this forum
You cannot delete your posts in this forum
You cannot vote in polls in this forum
You cannot attach files in this forum
You can download files in this forum
User agreement
For copyright holders
Advertise on this site

Скачайте на халяву через торрент на трекере erzsebet.pl

!ATTENTION!
The site does not give electronic versions of products, and is engaged only in a collecting and cataloguing of the references sent and published at a forum by our readers. If you are the legal owner of any submitted material and do not wish that the reference to it was in our catalogue, contact us and we shall immediately remove her. Files for an exchange on tracker are given by users of a site, and the administration does not bear the responsibility for their maintenance. The request to not fill in the files protected by copyrights, and also files of the illegal maintenance!