Тигр семи морей / La Tigre dei sette mari / Tiger of the Seven Seas (Луиджи Капуано / Luigi Capuano) [1962, Франция, Италия, Приключения, DVDRip] MVO

DL-List and Torrent activity
Size:  1.5 GB   |    Registered:  2 years 10 months   |    Completed:  16 times
Seeders:  3  
 
   
 
 

Max Levien ®

Longevity:
2 years 10 months
Posts:
20374

[Quote] 

Тигр семи морей / La Tigre dei sette mari / Tiger of the Seven Seas
Страна: Франция, Италия
Жанр: Приключения
Год выпуска: 1962
Продолжительность: 01:25:44
Перевод: Профессиональный (многоголосый закадровый)
Субтитры: нет
Режиссер: Луиджи Капуано / Luigi Capuano
В ролях: Джанна Мария Канале, Энтони Стил, Мария Грация Спина, Эрнесто Калиндри, Андреа Аурели, Карло Нинки, Джон Китцмиллер, Карло Писакане, Наццарено Дзамперла, Паскуале Де Филиппо, Джулио Баттиферри, Ренато Джомини, Ренато Иззо
Описание: Энтони Стил ("Виннету - сын Инчу-Чуна"), Жанна Канале ("Лев Венеции"), Андреа Аурели ("Легионы Клеопатры") в пиратском фильме Луиджи Капуано "Тигр семи морей". Увлекательное приключенческое кино о прекрасной Консуэлло, дочери одного из самых известных пиратов - Тигра Семи Морей, которая пошла по стопам отца. Девушка не только превосходно владеет шпагой и другим видом оружия, но и красива как ангел. Любители фильмов про пиратов останутся довольны. Кино для всех возрастов.
Доп. информация: Релиз Lem. Работа со звуком alex7691
Сэмпл: http://multi-up.com/683002
Качество видео: DVDRip
Формат видео: AVI
Видео: XviD MPEG-4, 688x288 (2.39:1), 25 fps, 2302 kbps avg
Аудио: AC3 Dolby Digital, 48 kHz, 2/0 (L,R) ch, 192 kbps avg

MediaInfo

General
Complete name : D:\НА РУТРЕКЕР\Tigr.semi.morey.1962.XviD.DVDRip.Lem.avi
Format : AVI
Format/Info : Audio Video Interleave
File size : 1.50 GiB
Duration : 1h 25mn
Overall bit rate : 2 504 Kbps
Writing application : VirtualDubModRus 1.5.10.2 (build 2542/release)
Writing library : VirtualDubMod build 2542/release
Video
ID : 0
Format : MPEG-4 Visual
Format profile : [email protected]
Format settings, BVOP : Yes
Format settings, QPel : No
Format settings, GMC : No warppoints
Format settings, Matrix : Default (MPEG)
Muxing mode : Packed bitstream
Codec ID : XVID
Codec ID/Hint : XviD
Duration : 1h 25mn
Bit rate : 2 302 Kbps
Width : 688 pixels
Height : 288 pixels
Display aspect ratio : 2.35
Frame rate : 25.000 fps
Resolution : 24 bits
Colorimetry : 4:2:0
Scan type : Progressive
Bits/(Pixel*Frame) : 0.465
Stream size : 1.38 GiB (92%)
Writing library : XviD 1.2.0.dev47 (UTC 2006-11-01)
Audio
ID : 1
Format : AC-3
Format/Info : Audio Coding 3
Codec ID : 2000
Duration : 1h 25mn
Bit rate mode : Constant
Bit rate : 192 Kbps
Channel(s) : 2 channels
Channel positions : L R
Sampling rate : 48.0 KHz
Video delay : 24ms
Stream size : 118 MiB (8%)
Alignment : Split accross interleaves
Interleave, duration : 40 ms (1.00 video frame)
Interleave, preload duration : 500 ms

Скриншоты

Сравнения

Сравнения с http://erzsebet.org/forum/viewtopic.php?t=1510917
Сравнительные скриншоты http://screenshotcomparison.com/comparison/117722/picture:0

If your ratio falls below 0.3, you will not be able to download Torrents! More about the rating.

[erzsebet.pl].t48936.torrent
Torrent: Registered   [ 2017-12-10 22:03 ]

Download .torrent

Download

15 KB

Status: checked
Completed: 16 times
Size: 1.5 GB
terms.php

#1

10-Dec-2017 22:01

[Profile]  [PM] 
Display posts:    

You cannot post new topics in this forum
You cannot reply to topics in this forum
You cannot edit your posts in this forum
You cannot delete your posts in this forum
You cannot vote in polls in this forum
You cannot attach files in this forum
You can download files in this forum
User agreement
For copyright holders
Advertise on this site

Скачайте на халяву через торрент на трекере erzsebet.pl

!ATTENTION!
The site does not give electronic versions of products, and is engaged only in a collecting and cataloguing of the references sent and published at a forum by our readers. If you are the legal owner of any submitted material and do not wish that the reference to it was in our catalogue, contact us and we shall immediately remove her. Files for an exchange on tracker are given by users of a site, and the administration does not bear the responsibility for their maintenance. The request to not fill in the files protected by copyrights, and also files of the illegal maintenance!