Пятница, 13-е / Friday the 13th (Шон С. Каннингэм / Sean S. Cunningham) [1980, США, ужасы, слэшер, DVDRip] 5 x AVO (Товбин, Иванов, Либергал, Живов, Кузнецов) + DVO (НТВ)

DL-List and Torrent activity
Size:  1.85 GB   |    Registered:  2 years 10 months   |    Completed:  16 times
Seeders:  3  
 
   
 
 

Max Levien ®

Longevity:
2 years 10 months
Posts:
20374

[Quote] 

Пятница, 13-е / Friday the 13th
Страна: США
Студия: Georgetown Productions Inc., Paramount Pictures, Sean S. Cunningham Films, Warner Bros. Pictures
Жанр: ужасы, слэшер
Год выпуска: 1980
Продолжительность: 01:35:12
Перевод 1: Авторский (одноголосый закадровый) Товбин
Перевод 2: Авторский (одноголосый закадровый) Иванов
Перевод 3: Авторский (одноголосый закадровый) Либергал
Перевод 4: Авторский (одноголосый закадровый) Живов - отдельно
Перевод 5: Авторский (одноголосый закадровый) Кузнецов - отдельно
Перевод 6: Профессиональный двухголосый НТВ - отдельно
Субтитры: нет
Оригинальная аудиодорожка: нет
Режиссер: Шон С. Каннингэм / Sean S. Cunningham
В ролях: Бетси Палмер, Эдриенн Кинг, Джаннин Тейлор, Робби Морган, Кевин Бэйкон, Гарри Кросби, Лори Бартрам, Марк Нельсон, Питер Брауэр, Рекс Эверхарт, Ронн Кэрролл, Рон Миллки, Уолт Горни, Уилли Эдамс, Дебра С. Хейс, Дороти Кобс, Сэлли Энн Голден, Мэри Рокко, Кен Л. Паркер, Ари Леман
Описание: Их предупреждали… Их прокляли… В пятницу, 13-ого… их уже ничего не спасет… Уютный лагерь «Хрустальное озеро» вновь открывается! Вожатые ожидают летнюю смену, приготовив для юных гостей увлекательные мероприятия и забавные игры. Правда, появилась новая игра, о которой вожатые еще не знают: она будет пользоваться большой популярностью в этом сезоне. Игра называется — «Убей вожатого!».
Доп.информация:
Исходник рипа - http://erzsebet.org/forum/viewtopic.php?t=5267589
Дорожка с переводом НТВ взята отсюда - http://erzsebet.org/forum/viewtopic.php?t=5225044
Синхронизировал лично.
В переводе НТВ роли озвучивали: Александр Рахленко и Анна Каменкова
Сэмпл: http://sendfile.su/1259944
Качество видео: DVDRip
Формат видео: AVI
Видео: 704x400 (1.76:1), 23,976 fps, XviD MPEG4 ~1605 kbps avg, 0,24 bits/(pixel*frame)
Аудио 1: 48 kHz, AC3 Dolby Digital, 2/0 (L,R) ch, ~192.00 kbps avg - AVO (Товбин)
Аудио 2: 48 kHz, AC3 Dolby Digital, 2/0 (L,R) ch, ~192.00 kbps avg - AVO (Иванов)
Аудио 3: 48 kHz, AC3 Dolby Digital, 2/0 (L,R) ch, ~192.00 kbps avg - AVO (Либергал)
Аудио 4: 48 kHz, AC3 Dolby Digital, 2/0 (L,R) ch, ~192.00 kbps avg - AVO (Живов) - отдельно
Аудио 5: 48 kHz, AC3 Dolby Digital, 2/0 (L,R) ch, ~192.00 kbps avg - AVO (Кузнецов) - отдельно
Аудио 6: 48 kHz, AC3 Dolby Digital, 2/0 (L,R) ch, ~192.00 kbps avg - DVO (НТВ) - отдельно

MediaInfo

General
Complete name : F:\FILM\Friday the 13th\Friday the 13th (1980).avi
Format : AVI
Format/Info : Audio Video Interleave
File size : 1.46 GiB
Duration : 1h 35mn
Overall bit rate : 2 200 Kbps
Writing application : VirtualDubMod 1.5.10.2 (build 2542/release)
Writing library : VirtualDubMod build 2542/release
Video
ID : 0
Format : MPEG-4 Visual
Format profile : Advanced [email protected]
Format settings, BVOP : 1
Format settings, QPel : No
Format settings, GMC : No warppoints
Format settings, Matrix : Custom
Codec ID : XVID
Codec ID/Hint : XviD
Duration : 1h 35mn
Bit rate : 1 605 Kbps
Width : 704 pixels
Height : 400 pixels
Display aspect ratio : 16:9
Frame rate : 23.976 fps
Color space : YUV
Chroma subsampling : 4:2:0
Bit depth : 8 bits
Scan type : Progressive
Compression mode : Lossy
Bits/(Pixel*Frame) : 0.238
Stream size : 1.07 GiB (73%)
Writing library : XviD 73
Audio #1
ID : 1
Format : AC-3
Format/Info : Audio Coding 3
Mode extension : CM (complete main)
Format settings, Endianness : Big
Codec ID : 2000
Duration : 1h 35mn
Bit rate mode : Constant
Bit rate : 192 Kbps
Channel(s) : 2 channels
Channel positions : Front: L R
Sampling rate : 48.0 KHz
Compression mode : Lossy
Stream size : 131 MiB (9%)
Alignment : Split accross interleaves
Interleave, duration : 42 ms (1.00 video frame)
Interleave, preload duration : 500 ms
Audio #2
ID : 2
Format : AC-3
Format/Info : Audio Coding 3
Mode extension : CM (complete main)
Format settings, Endianness : Big
Codec ID : 2000
Duration : 1h 35mn
Bit rate mode : Constant
Bit rate : 192 Kbps
Channel(s) : 2 channels
Channel positions : Front: L R
Sampling rate : 48.0 KHz
Compression mode : Lossy
Stream size : 131 MiB (9%)
Alignment : Split accross interleaves
Interleave, duration : 42 ms (1.00 video frame)
Interleave, preload duration : 500 ms
Audio #3
ID : 3
Format : AC-3
Format/Info : Audio Coding 3
Mode extension : CM (complete main)
Format settings, Endianness : Big
Codec ID : 2000
Duration : 1h 35mn
Bit rate mode : Constant
Bit rate : 192 Kbps
Channel(s) : 2 channels
Channel positions : Front: L R
Sampling rate : 48.0 KHz
Compression mode : Lossy
Stream size : 131 MiB (9%)
Alignment : Split accross interleaves
Interleave, duration : 42 ms (1.00 video frame)
Interleave, preload duration : 500 ms

Скриншоты

If your ratio falls below 0.3, you will not be able to download Torrents! More about the rating.

[erzsebet.pl].t48939.torrent
Torrent: Registered   [ 2017-12-10 22:03 ]

Download .torrent

Download

19 KB

Status: checked
Completed: 16 times
Size: 1.85 GB
terms.php

#1

10-Dec-2017 22:01

[Profile]  [PM] 
Display posts:    

You cannot post new topics in this forum
You cannot reply to topics in this forum
You cannot edit your posts in this forum
You cannot delete your posts in this forum
You cannot vote in polls in this forum
You cannot attach files in this forum
You can download files in this forum
User agreement
For copyright holders
Advertise on this site

Скачайте на халяву через торрент на трекере erzsebet.pl

!ATTENTION!
The site does not give electronic versions of products, and is engaged only in a collecting and cataloguing of the references sent and published at a forum by our readers. If you are the legal owner of any submitted material and do not wish that the reference to it was in our catalogue, contact us and we shall immediately remove her. Files for an exchange on tracker are given by users of a site, and the administration does not bear the responsibility for their maintenance. The request to not fill in the files protected by copyrights, and also files of the illegal maintenance!