Миранда / Miranda (Тинто Брасс / Tinto Brass) [1985, Италия, комедия, мелодрама, эротика, DVDRip] DVO (НТВ) + DVO (Инис) + Original Ita

DL-List and Torrent activity
Size:  1.46 GB   |    Registered:  2 years 10 months   |    Completed:  16 times
Seeders:  2  
 
   
 
 

Max Levien ®

Longevity:
2 years 10 months
Posts:
20374

[Quote] 

Миранда / Miranda Страна: Италия
Жанр: комедия, мелодрама, эротика
Год выпуска: 1985
Продолжительность: 01:35:02
Перевод 1: Профессиональный (двухголосый закадровый) - Телекомпания «НТВ»
Перевод 2: Профессиональный (двухголосый закадровый) - Студия «Инис»
Субтитры: нет
Оригинальная аудиодорожка: итальянская
Режиссер: Тинто Брасс / Tinto Brass
В ролях: Серена Гранди, Андреа Оккипинти, Франко Интерленги, Энди Дж. Форест, Франко Бранчароли, Мализа Лонго, Лаура Сасси, Изабель Ийе, Лучана Чиренеи, Жан Рене Лемойн.
Описание: Миранда — хозяйка гостиницы, трактирщица. Её неотразимая красота и потрясающая сексуальность влекут, соблазняют, покоряют и подчиняют мужчин. Её гостиница - настоящий клуб поклонников Миранды.
Однако выбирает всегда она... И только самый страстный, безумно, но тайно желающий её - терпеливо ждёт своего часа...

Доп. информация: Исходник (DVD5) позаимствован у AlsKnight. Спасибо!
Благодарность за аудиодорожки с переводами от «НТВ» и студии «Инис» отсылается Glowamy
DVDRip и сведение звука - Arle-kino

Качество видео: DVDRip
Формат видео: AVI
Видео: 672x400 (1.68:1), 25 fps, XviD build 50 ~1571 kbps avg, 0.23 bit/pixel
Аудио 1: 48 kHz, AC3 Dolby Digital, 2/0 (L,R) ch, ~192 kbps - Rus (NTV)
Аудио 2: 48 kHz, AC3 Dolby Digital, 2/0 (L,R) ch, ~192 kbps - Rus (Inis)
Аудио 3: 48 kHz, AC3 Dolby Digital, 2/0 (L,R) ch, ~224 kbps - Ital

MediaInfo

General
Complete name : D:\Public\Miranda (5)(PAL)\Miranda (1985) [DVDRip, Rus (NTV), Rus (Inis), Ital].avi
Format : AVI
Format/Info : Audio Video Interleave
File size : 1.46 GiB
Duration : 1h 35mn
Overall bit rate : 2 200 Kbps
Writing application : VirtualDubMod 1.5.10.2 (build 2540/release)
Writing library : VirtualDubMod build 2540/release
Video
ID : 0
Format : MPEG-4 Visual
Format profile : Advanced [email protected]
Format settings, BVOP : 1
Format settings, QPel : No
Format settings, GMC : No warppoints
Format settings, Matrix : Default (MPEG)
Codec ID : XVID
Codec ID/Hint : XviD
Duration : 1h 35mn
Bit rate : 1 573 Kbps
Width : 672 pixels
Height : 400 pixels
Display aspect ratio : 1.680
Frame rate : 25.000 fps
Color space : YUV
Chroma subsampling : 4:2:0
Bit depth : 8 bits
Scan type : Progressive
Compression mode : Lossy
Bits/(Pixel*Frame) : 0.234
Stream size : 1.04 GiB (71%)
Writing library : XviD 1.2.1 (UTC 2008-12-04)
Audio #1
ID : 1
Format : AC-3
Format/Info : Audio Coding 3
Mode extension : CM (complete main)
Codec ID : 2000
Duration : 1h 35mn
Bit rate mode : Constant
Bit rate : 192 Kbps
Channel(s) : 2 channels
Channel positions : Front: L R
Sampling rate : 48.0 KHz
Bit depth : 16 bits
Compression mode : Lossy
Stream size : 130 MiB (9%)
Alignment : Split accross interleaves
Interleave, duration : 40 ms (1.00 video frame)
Interleave, preload duration : 500 ms
Title : Rus (NTV)
Audio #2
ID : 2
Format : AC-3
Format/Info : Audio Coding 3
Mode extension : CM (complete main)
Codec ID : 2000
Duration : 1h 35mn
Bit rate mode : Constant
Bit rate : 192 Kbps
Channel(s) : 2 channels
Channel positions : Front: L R
Sampling rate : 48.0 KHz
Bit depth : 16 bits
Compression mode : Lossy
Stream size : 130 MiB (9%)
Alignment : Split accross interleaves
Interleave, duration : 40 ms (1.00 video frame)
Interleave, preload duration : 500 ms
Title : Rus (Inis)
Audio #3
ID : 3
Format : AC-3
Format/Info : Audio Coding 3
Mode extension : CM (complete main)
Codec ID : 2000
Duration : 1h 35mn
Bit rate mode : Constant
Bit rate : 224 Kbps
Channel(s) : 2 channels
Channel positions : Front: L R
Sampling rate : 48.0 KHz
Bit depth : 16 bits
Compression mode : Lossy
Stream size : 152 MiB (10%)
Alignment : Split accross interleaves
Interleave, duration : 40 ms (1.00 video frame)
Interleave, preload duration : 500 ms
Title : Ital

Скриншот c названием фильма

Скриншоты

If your ratio falls below 0.3, you will not be able to download Torrents! More about the rating.

[erzsebet.pl].t48942.torrent
Torrent: Registered   [ 2017-12-10 22:03 ]

Download .torrent

Download

15 KB

Status: checked
Completed: 16 times
Size: 1.46 GB
terms.php

#1

10-Dec-2017 22:01

[Profile]  [PM] 
Display posts:    

You cannot post new topics in this forum
You cannot reply to topics in this forum
You cannot edit your posts in this forum
You cannot delete your posts in this forum
You cannot vote in polls in this forum
You cannot attach files in this forum
You can download files in this forum
User agreement
For copyright holders
Advertise on this site

Скачайте на халяву через торрент на трекере erzsebet.pl

!ATTENTION!
The site does not give electronic versions of products, and is engaged only in a collecting and cataloguing of the references sent and published at a forum by our readers. If you are the legal owner of any submitted material and do not wish that the reference to it was in our catalogue, contact us and we shall immediately remove her. Files for an exchange on tracker are given by users of a site, and the administration does not bear the responsibility for their maintenance. The request to not fill in the files protected by copyrights, and also files of the illegal maintenance!