Вторжение в США / Invasion U.S.A. (Джозеф Зито / Joseph Zito) [1985, США, боевик, триллер, BDRip] MVO (5 канал) + MVO (2х2) + AVO (Юрий Живов) + AVO (Андрей Гаврилов) + Sub Eng + Original Eng

DL-List and Torrent activity
Size:  2.09 GB   |    Registered:  2 years 10 months   |    Completed:  16 times
Seeders:  2  
 
   
 
 

Max Levien ®

Longevity:
2 years 10 months
Posts:
20374

[Quote] 

Вторжение в США / Invasion U.S.A.
Страна: США
Жанр: боевик, триллер
Год выпуска: 1985
Продолжительность: 01:47:40
Перевод: Профессиональный (многоголосый закадровый) 5 канал
Перевод 2: Профессиональный (многоголосый закадровый) 2х2
Перевод 3: Авторский (одноголосый закадровый) Юрий Живов
Перевод 4: Авторский (одноголосый закадровый) Андрей Гаврилов
Субтитры: английские
Оригинальная аудиодорожка: английский
Режиссер: Джозеф Зито / Joseph Zito
В ролях: Чак Норрис, Ричард Линч, Мелисса Профет, Александр Зейл, Алекс Колон, Эдди Джонс, Джон Де Вриз, Джеймс О’Салливан, Билли Драго, Хайме Санчес
Описание: Отставной агент ЦРУ вынужден вернуться в строй после высадки во Флориде советских террористов, грозящей захватом всей страны. Тем более что наконец-то предоставляется возможность уничтожить давнего врага — агента Михаила Ростова. Но и советский шпион тоже хочет поквитаться со своим старым знакомым.
Сэмпл
Автор рипа: Sem-te
Релиз от:
Качество видео: BDRip
Формат видео: AVI
Видео: 704x384 (1.83:1), 23.976 fps, XviD build 73 ~1550 kbps avg, 0.24 bit/pixel
Аудио: 48 kHz, AC3 Dolby Digital, 2/0 (L,R) ch, ~192 kbps | Петербург 5-й канал
Аудио 2: 48 kHz, AC3 Dolby Digital, 2/0 (L,R) ch, ~192 kbps | 2x2
Аудио 3: 48 kHz, AC3 Dolby Digital, 2/0 (L,R) ch, ~192 kbps | Юрий Живов (отдельно)
Аудио 4: 48 kHz, AC3 Dolby Digital, 2/0 (L,R) ch, ~192 kbps | Андрей Гаврилов (отдельно)
Аудио 5: 48 kHz, AC3 Dolby Digital, 3/2 (L,C,R,l,r) + LFE ch, ~448 kbps | Eng (отдельно)

MediaInfo

General
Complete name : C:\Users\Sem-te\Desktop\Invasion.U.S.A.1985.BDRip.XviD.АС3.Sem-te\Invasion.U.S.A.1985.BDRip.XviD.АС3.Sem-te.avi
Format : AVI
Format/Info : Audio Video Interleave
File size : 1.47 GiB
Duration : 1h 47mn
Overall bit rate : 1 948 Kbps
Writing application : VirtualDubMod 1.5.10.3 | www.virtualdub-fr.org || (build 2550/release)
Writing library : VirtualDubMod build 2550/release
Video
ID : 0
Format : MPEG-4 Visual
Format profile : Advanced [email protected]
Format settings, BVOP : 1
Format settings, QPel : No
Format settings, GMC : No warppoints
Format settings, Matrix : Custom
Codec ID : XVID
Codec ID/Hint : XviD
Duration : 1h 47mn
Bit rate : 1 550 Kbps
Width : 704 pixels
Height : 384 pixels
Display aspect ratio : 1.85:1
Frame rate : 23.976 fps
Color space : YUV
Chroma subsampling : 4:2:0
Bit depth : 8 bits
Scan type : Progressive
Compression mode : Lossy
Bits/(Pixel*Frame) : 0.239
Stream size : 1.17 GiB (80%)
Writing library : XviD 73
Audio #1
ID : 1
Format : AC-3
Format/Info : Audio Coding 3
Mode extension : CM (complete main)
Format settings, Endianness : Big
Codec ID : 2000
Duration : 1h 47mn
Bit rate mode : Constant
Bit rate : 192 Kbps
Channel(s) : 2 channels
Channel positions : Front: L R
Sampling rate : 48.0 KHz
Bit depth : 16 bits
Compression mode : Lossy
Stream size : 148 MiB (10%)
Alignment : Split accross interleaves
Interleave, duration : 42 ms (1.00 video frame)
Interleave, preload duration : 500 ms
Audio #2
ID : 2
Format : AC-3
Format/Info : Audio Coding 3
Mode extension : CM (complete main)
Format settings, Endianness : Big
Codec ID : 2000
Duration : 1h 47mn
Bit rate mode : Constant
Bit rate : 192 Kbps
Channel(s) : 2 channels
Channel positions : Front: L R
Sampling rate : 48.0 KHz
Bit depth : 16 bits
Compression mode : Lossy
Stream size : 148 MiB (10%)
Alignment : Split accross interleaves
Interleave, duration : 42 ms (1.00 video frame)
Interleave, preload duration : 500 ms

Скриншоты

If your ratio falls below 0.3, you will not be able to download Torrents! More about the rating.

[erzsebet.pl].t48946.torrent
Torrent: Registered   [ 2017-12-10 22:03 ]

Download .torrent

Download

12 KB

Status: checked
Completed: 16 times
Size: 2.09 GB
terms.php

#1

10-Dec-2017 22:01

[Profile]  [PM] 
Display posts:    

You cannot post new topics in this forum
You cannot reply to topics in this forum
You cannot edit your posts in this forum
You cannot delete your posts in this forum
You cannot vote in polls in this forum
You cannot attach files in this forum
You can download files in this forum
User agreement
For copyright holders
Advertise on this site

Скачайте на халяву через торрент на трекере erzsebet.pl

!ATTENTION!
The site does not give electronic versions of products, and is engaged only in a collecting and cataloguing of the references sent and published at a forum by our readers. If you are the legal owner of any submitted material and do not wish that the reference to it was in our catalogue, contact us and we shall immediately remove her. Files for an exchange on tracker are given by users of a site, and the administration does not bear the responsibility for their maintenance. The request to not fill in the files protected by copyrights, and also files of the illegal maintenance!