Душители / The Deceivers (Николас Мейер / Nicholas Meyer) [1988, Великобритания, Индия, Приключения, драма, триллер, DVDRip] DVO (Совенчер) + Original

DL-List and Torrent activity
Size:  1.46 GB   |    Registered:  2 years 10 months   |    Completed:  16 times
Seeders:  2  
 
   
 
 

Max Levien ®

Longevity:
2 years 10 months
Posts:
20374

[Quote] 

Душители / The Deceivers -Год выпуска: 1988
Страна: Великобритания, Индия
Студия: Cinecom Pictures, Film Four International, Master Productions, Merchant Ivory Productions, Michael White Productions
Жанр: Приключения, драма, триллер
Продолжительность: 01:42:29
Перевод: Профессиональный (двухголосый закадровый) фирма "СВ-Дубль" по заказу Совенчер |VHS|
Субтитры: нет
Оригинальная аудиодорожка: английский
-Режиссер: Николас Мейер / Nicholas Meyer-В ролях: Пирс Броснан, Сайид Джеффри, Шаши Капур, Хелена Мичелл, Кит Мичелл, Дэвид Робб, Тарик Юнус, Джалал Агха, Гэри Кэйди, Салим Гхус, Нина Гупта и другие.-Роли озвучивали (Совенчер): Олег Форостенко, Ольга Гаспарова.-Описание: Индия, 1825 год. Капитан Уильям Сэвидж, только что женившийся на дочери полковника, узнает о страшных ритуальных убийствах и производит несколько арестов. Однако полковник приказывает освободить арестованных за недостатком доказательств. Сэвиджу, тем временем, удалось добиться признания одного из членов секты, решившего помочь ему покончить с варварским обычаем. Переодевшись индусом, капитан отправляется на «охоту» вместе с группой душителей, чтобы собрать доказательства. Фильм основан на реальных событиях.-РЕЛИЗ ОТ: V.SERIJ2013-Спасибо Fikaloid за оцифровку VHS-издания Совенчер и v.serij2013 (т.е., мне) за обработку и сведение.-Качество: DVDRip
Формат: AVI
Видео кодек: XVID
Аудио кодек: AC3
Видео: XVID, 704x384 (1.85:1), 23.976 fps, ~1635 kbps, 0.252 bit/pixel
Аудио:
  • русская |Совенчер|: AC3, 48 kHz, 2 ch, 192 kbps
  • английская |Оригинал|: AC3, 48 kHz, 2 ch, 192 kbps
-Сэмпл\ Кинопоиск-

Скриншот c названием фильма

Скриншоты

Media Info

Код:General
Complete name : E:\Video\SD\The Deceivers (1988) (DVDRip).avi
Format : AVI
Format/Info : Audio Video Interleave
File size : 1.46 GiB
Duration : 1h 42mn
Overall bit rate : 2 034 Kbps
Movie name : Обманщики / Душители / Deceivers, The (1988)
Writing application : VirtualDubMod 1.5.10.2 (build 2540/release)
Writing library : VirtualDubMod build 2540/release
Copyright : HeDgEhOt®
Video
ID : 0
Format : MPEG-4 Visual
Format profile : Advanced [email protected]
Format settings, BVOP : 1
Format settings, QPel : No
Format settings, GMC : No warppoints
Format settings, Matrix : Custom
Codec ID : XVID
Codec ID/Hint : XviD
Duration : 1h 42mn
Bit rate : 1 635 Kbps
Width : 704 pixels
Height : 384 pixels
Display aspect ratio : 1.85:1
Frame rate : 23.976 fps
Color space : YUV
Chroma subsampling : 4:2:0
Bit depth : 8 bits
Scan type : Progressive
Compression mode : Lossy
Bits/(Pixel*Frame) : 0.252
Stream size : 1.17 GiB (80%)
Writing library : XviD 1.2.1 (UTC 2008-12-04)
Audio #1
ID : 1
Format : AC-3
Format/Info : Audio Coding 3
Mode extension : CM (complete main)
Format settings, Endianness : Big
Codec ID : 2000
Duration : 1h 42mn
Bit rate mode : Constant
Bit rate : 192 Kbps
Channel(s) : 2 channels
Channel positions : Front: L R
Sampling rate : 48.0 KHz
Bit depth : 16 bits
Compression mode : Lossy
Stream size : 141 MiB (9%)
Alignment : Split accross interleaves
Interleave, duration : 42 ms (1.00 video frame)
Interleave, preload duration : 500 ms
Language : Русский / English
Audio #2
ID : 2
Format : AC-3
Format/Info : Audio Coding 3
Format profile : Dolby Digital
Mode extension : CM (complete main)
Format settings, Endianness : Big
Codec ID : 2000
Duration : 1h 42mn
Bit rate mode : Constant
Bit rate : 192 Kbps
Channel(s) : 2 channels
Channel positions : Front: L R
Sampling rate : 48.0 KHz
Bit depth : 16 bits
Compression mode : Lossy
Stream size : 141 MiB (9%)
Alignment : Split accross interleaves
Interleave, duration : 42 ms (1.00 video frame)
Interleave, preload duration : 500 ms
-

If your ratio falls below 0.3, you will not be able to download Torrents! More about the rating.

[erzsebet.pl].t48948.torrent
Torrent: Registered   [ 2017-12-10 22:03 ]

Download .torrent

Download

15 KB

Status: checked
Completed: 16 times
Size: 1.46 GB
terms.php

#1

10-Dec-2017 22:01

[Profile]  [PM] 
Display posts:    

You cannot post new topics in this forum
You cannot reply to topics in this forum
You cannot edit your posts in this forum
You cannot delete your posts in this forum
You cannot vote in polls in this forum
You cannot attach files in this forum
You can download files in this forum
User agreement
For copyright holders
Advertise on this site

Скачайте на халяву через торрент на трекере erzsebet.pl

!ATTENTION!
The site does not give electronic versions of products, and is engaged only in a collecting and cataloguing of the references sent and published at a forum by our readers. If you are the legal owner of any submitted material and do not wish that the reference to it was in our catalogue, contact us and we shall immediately remove her. Files for an exchange on tracker are given by users of a site, and the administration does not bear the responsibility for their maintenance. The request to not fill in the files protected by copyrights, and also files of the illegal maintenance!