Парни что надо / The Right Stuff (Филип Кауфман / Philip Kaufman) [1983, США, фантастика, драма, приключения, история, DVDRip] DVO

DL-List and Torrent activity
Size:  1.33 GB   |    Registered:  2 years 10 months   |    Completed:  16 times
Seeders:  3  
 
   
 
 

Max Levien ®

Longevity:
2 years 10 months
Posts:
20374

[Quote] 

Парни что надо / The Right Stuff Год выпуска: 1983
Страна: США
Жанр: фантастика, драма, приключения, история
Продолжительность: 03:04:51
Перевод: профессиональный (двухголосый закадровый)
Субтитры: нет
Режиссер: Филип Кауфман / Philip Kaufman
В ролях:
Сэм Шепард, Скотт Гленн, Эд Харрис, Деннис Куэйд, Фред Уорд, Барбара Херши, Ким Стэнли, Вероника Картрайт, Памела Рид, Скотт Полин
Описание:
1953 год. Карибское море… Реактивный самолет взлетает с борта авианосца, он просто исчезает в небе. Приборы фиксируют: он перешел границу скорости звука… Эта картина — фрагментарная история американской астронавтики с 1947 по 1963 год, когда после долгих и трагических испытаний, американцы наконец вышли в космос.

Качество видео: DVDRip
Формат видео: AVI
Видео: 536x296 (1.81:1), 25 fps, XviD 1.1 beta 1 (build 38) ~797 kbps avg, 0.20 bit/pixel
Аудио: 44.100 kHz, MPEG Layer 3, 2 ch, ~224.00 kbps avg

MediaInfo

General
Complete name : E:\Parni chto nado.avi
Format : AVI
Format/Info : Audio Video Interleave
File size : 1.33 GiB
Duration : 3h 4mn
Overall bit rate : 1 031 Kbps
Writing application : VirtualDubMod 1.5.10.1 (build 2366/release)
Writing library : VirtualDubMod build 2366/release
Video
ID : 0
Format : MPEG-4 Visual
Format profile : [email protected]
Format settings, BVOP : 2
Format settings, QPel : No
Format settings, GMC : No warppoints
Format settings, Matrix : Default (H.263)
Codec ID : XVID
Codec ID/Hint : XviD
Duration : 3h 4mn
Bit rate : 797 Kbps
Width : 536 pixels
Height : 296 pixels
Display aspect ratio : 16:9
Frame rate : 25.000 fps
Color space : YUV
Chroma subsampling : 4:2:0
Bit depth : 8 bits
Scan type : Progressive
Compression mode : Lossy
Bits/(Pixel*Frame) : 0.201
Stream size : 1.03 GiB (77%)
Writing library : XviD 1.1.0 Beta1 (UTC 2005-01-16)
Audio
ID : 1
Format : MPEG Audio
Format version : Version 1
Format profile : Layer 3
Mode : Joint stereo
Codec ID : 55
Codec ID/Hint : MP3
Duration : 3h 4mn
Bit rate mode : Constant
Bit rate : 224 Kbps
Channel count : 2 channels
Sampling rate : 44.1 KHz
Compression mode : Lossy
Stream size : 296 MiB (22%)
Alignment : Split accross interleaves
Interleave, duration : 40 ms (1.00 video frame)
Interleave, preload duration : 500 ms

Скриншоты

If your ratio falls below 0.3, you will not be able to download Torrents! More about the rating.

[erzsebet.pl].t48950.torrent
Torrent: Registered   [ 2017-12-10 22:03 ]

Download .torrent

Download

14 KB

Status: checked
Completed: 16 times
Size: 1.33 GB
terms.php

#1

10-Dec-2017 22:01

[Profile]  [PM] 
Display posts:    

You cannot post new topics in this forum
You cannot reply to topics in this forum
You cannot edit your posts in this forum
You cannot delete your posts in this forum
You cannot vote in polls in this forum
You cannot attach files in this forum
You can download files in this forum
User agreement
For copyright holders
Advertise on this site

Скачайте на халяву через торрент на трекере erzsebet.pl

!ATTENTION!
The site does not give electronic versions of products, and is engaged only in a collecting and cataloguing of the references sent and published at a forum by our readers. If you are the legal owner of any submitted material and do not wish that the reference to it was in our catalogue, contact us and we shall immediately remove her. Files for an exchange on tracker are given by users of a site, and the administration does not bear the responsibility for their maintenance. The request to not fill in the files protected by copyrights, and also files of the illegal maintenance!